O JIYA
ASMAT & emi

ADVANCED

Level: 7
BPM: 151
Notes: 385

1
口口口口 |----|
口口口口 |----|
口口口口 |----|
口口口口 |----|
2
口口②① |①-②③|
口③口口 |④-⑤-|
⑦口④⑥ |--⑥-|
⑤口口口 |⑦---|
3
口口口口 |①-②③|
口口②① |④-⑤-|
口③口口
⑤口④口

口口口口
口口口⑧
⑦口口口 |--⑥-|
口口口⑥ |⑦-⑧-|
4
口口②① |①-②③|
口③口口 |④-⑤-|
⑦口④⑥ |--⑥-|
⑤口口口 |⑦---|
5
口口口口 |①---|
①③③① |②---|
④口口④ |③---|
口②②口 |④---|
6
口口②① |①-②③|
口③口口 |④-⑤-|
⑦口④⑥ |--⑥-|
⑤口口口 |⑦---|
7
口口口口 |①-②③|
口口②① |④-⑤-|
口③口口
⑤口④口

口口口口
口口口⑧
⑦口口口 |--⑥-|
口口口⑥ |⑦-⑧-|
8
口口②① |①-②③|
口③口口 |④-⑤-|
⑦口④⑥ |--⑥-|
⑤口口口 |⑦---|
9
④②①口 |①---|
口③③口 |②---|
口③③口 |③---|
口①②口 |④---|
10
口⑥口③ |①-②-|
④口⑤口 |③-④-|
②口口口 |⑤---|
口口口① |--⑥-|
11
④口⑤口 |①-②-|
口⑥口③ |③-④-|
②口⑦口 |⑤-⑥-|
口⑧①口 |⑦-⑧-|
12
口口口③ |①-②-|
④口⑤口 |③-④-|
②口口⑥ |⑤---|
口口①口 |--⑥-|
13
⑤口口口 |①---|
口④口口 |②-③-|
①口③口 |④---|
口②口口 |⑤---|
14
口口口⑤ |①-②-|
④③②① |③-④-|
口口口⑥ |⑤---|
口口口口 |--⑥-|
15
⑧口⑥口 |①-②-|
口⑦口⑤ |③-④-|
口口口口 |⑤-⑥-|
①②③④ |⑦-⑧-|
16
口口口口 |①-②-|
口⑤口口 |③-④-|
①口③⑥ |⑤---|
口②口④ |--⑥-|
17
⑤口口口 |①---|
口④口口 |②-③-|
①口③口 |④---|
口②口口 |⑤---|
18
口口口① |①-②-|
②口口⑤ |③-④-|
口口口③ |----|
④口口口 |--⑤-|
19
口①⑧口 |①-②-|
口⑦②口 |③-④-|
⑤③⑥口 |⑤-⑥-|
口口④口 |⑦-⑧-|
20
口①口口 |①-②-|
口口②口 |③-④-|
口③口口 |----|
⑤口④口 |--⑤-|
21
口①①口 |①---|
③口口③ |②---|
口②②口 |③---|
口④④口 |④---|
22
口口①口 |①-②-|
口②口⑤ |③-④-|
口口③口 |----|
④口口口 |--⑤-|
23
口①口⑧ |①-②-|
⑦口②口 |③-④-|
口③口⑥ |⑤-⑥-|
口⑤④口 |⑦-⑧-|
24
①①口口 |①---|
口口口口 |----|
口口口口 |----|
口口口口 |----|
25
④②①口 |①---|
口③③口 |②---|
口③③口 |③---|
口①②口 |④---|
26
口口①① |①---|
口口口口 |②-③-|
②口口口
口口③③

口口⑥口
口⑤口口
口口④口 |--④-|
口口口口 |⑤-⑥-|
27
①口口② |①---|
口④⑥口 |②---|
口口口口 |③-④-|
口③⑤口 |⑤-⑥-|
28
口口①① |①---|
口口⑥口 |②-③-|
②⑤③③ |--④-|
口口④口 |⑤-⑥-|
29
①①口口 |①---|
③③口口 |②-③-|
口口口②
口口口口

⑥口口口
口口④口
口⑤口口 |--④-|
口口口口 |⑤-⑥-|
30
口口①① |①---|
口口口口 |②-③-|
②口口口
口口③③

口口⑥口
口⑤口口
口口④口 |--④-|
口口口口 |⑤-⑥-|
31
①口口② |①---|
口④⑥口 |②---|
口口口口 |③-④-|
口③⑤口 |⑤-⑥-|
32
口口①① |①---|
②口⑥口 |②-③-|
口⑤③③ |--④-|
口口④口 |⑤-⑥-|
33
④口口口 |①---|
①③口口 |②-③-|
口口②口 |----|
口口口口 |④---|
34
口口口口 |①---|
口②①口 |②-③-|
口口③口 |④---|
口④口⑤ |⑤---|
35
口⑦口口 |①-②-|
⑤口⑥口 |③-④-|
口③口④ |⑤-⑥-|
①口②口 |⑦---|
36
⑥⑥口① |①-②-|
口②口口 |③-④-|
口口⑤③ |⑤---|
④口口口 |⑥---|
37
口口口口 |①-②-|
④①①④ |③---|
②⑤⑤② |④-⑤-|
⑥③③⑥ |--⑥-|
38
①口口口 |①---|
⑤口②口 |②-③-|
口③口口 |④---|
口口④口 |⑤---|
39
口口⑦口 |①-②-|
口⑤口⑥ |③-④-|
③口④口 |⑤-⑥-|
口①口② |⑦---|
40
口①⑥⑥ |①-②-|
口口②口 |③-④-|
③⑤口口 |⑤---|
口口口④ |⑥---|
41
口口口口 |①-②-|
④①①④ |③---|
②⑤⑤② |④-⑤-|
⑥③③⑥ |--⑥-|
42
⑥④③⑤ |①-②-|
口②①口 |③-④-|
口口口口 |⑤---|
口口口口 |⑥---|
43
口⑥口③ |①-②-|
④口⑤口 |③-④-|
②口口口 |⑤---|
口口口① |--⑥-|
44
④口⑤口 |①-②-|
口⑥口③ |③-④-|
②口⑦口 |⑤-⑥-|
口⑧①口 |⑦-⑧-|
45
口口口③ |①-②-|
④口⑤口 |③-④-|
②口口⑥ |⑤---|
口口①口 |--⑥-|
46
⑤口口口 |①---|
口④口口 |②-③-|
①口③口 |④---|
口②口口 |⑤---|
47
口口口⑤ |①-②-|
④③②① |③-④-|
口口口⑥ |⑤---|
口口口口 |--⑥-|
48
⑧口⑥口 |①-②-|
口⑦口⑤ |③-④-|
口口口口 |⑤-⑥-|
①②③④ |⑦-⑧-|
49
口口口口 |①-②-|
口⑤口口 |③-④-|
①口③⑥ |⑤---|
口②口④ |--⑥-|
50
⑤口口口 |①---|
口④口口 |②-③-|
①口③口 |④---|
口②口口 |⑤---|
51
口口口① |①---|
口口口口 |--②-|
口②口⑤ |③---④-|
④口③口 |--⑤---|
52
②口口口 |①---|
口①口口 |②---|
口口口口 |----|
口口口口 |----|
53
口④⑤口 |--①-|
口口①口 |②-③-|
⑥②口口 |④---|
口口③口 |⑤-⑥-|
54
③口口③ |①---|
①口口① |②---|
口④④口 |③---|
口②②口 |④---|
55
⑤口口口 |①---|
口①④口 |--②-|
③口口口 |③---④-|
口口②口 |--⑤---|
56
口③口④ |①---②-|
口口口② |--③---|
口①口口 |④---|
⑤口口口 |⑤---|
57
口口①口 |--①-|
口②口⑤ |②-③-|
⑥口③⑦ |④-⑤-|
口④口口 |⑥-⑦-|
58
①①②② |①---|
口③③口 |②---|
口③③口 |③---|
②②①① |----|


不確定度: 0

最終更新:2013年03月29日 20:49