Chronos
TAG

BASIC

Level: 4
BPM: 128
Notes: 312

1
口口口口 |----|
口口口口 |----|
口口口口 |----|
口口口口
2
口①①口 |①---|
口口口口 |--②-|
口②②口 |----|
口口口口
3
口口口口 |①---|
口①①口 |--②-|
口口口口 |----|
口②②口
4
口口口口 |①-②-|
口口口口 |③-④-|
①②③④ |----|
口口口口
5
口口口口 |①-②-|
④③②① |③-④-|
口口口口 |----|
口口口口
6
口①①口 |①---|
口口口口 |--②-|
口②②口 |----|
口口口口
7
口口口口 |①---|
口①①口 |--②-|
口口口口 |----|
口②②口
8
口口口口 |①-②-|
口口口口 |③-④-|
①②③④ |----|
口口口口
9
口口口口 |①-②-|
④③②① |③-④-|
口口口口 |----|
口口口口
10
口①①口 |①---|
口口口口 |----|
口口口口 |----|
口口口口
11
口口口口 |----|
口口口口 |----|
口口口口 |----|
口口口口
12
口口口口 |①---|
①口口① |----|
①口口① |----|
口口口口
13
口口口口 |----|
口口口口 |----|
口口口口 |----|
口口口口
14
口口口口 |①-②-|
口口口口 |③-④-|
口口口口 |----|
①②③④
15
口口口口 |①--②|
口口口口 |----|
口①②口 |----|
口口口口
16
口口口口 |①-②-|
④③②① |③-④-|
口口口口 |----|
口口口口
17
口②①口 |①--②|
③口口④ |----|
口口口口 |③-④-|
口口口口
18
口口口口 |①-②-|
口口口口 |③-④-|
①②③④ |----|
口口口口
19
③②②③ |①--②|
④①①④ |--③-|
口口口口 |-④--|
口口口口
20
口①①口 |①---|
口②②口 |--②-|
口口口口 |----|
口口口口
21
口口口口 |①---|
口口口口 |--②-|
口①①口 |----|
口②②口
22
①口口③ |--①-|
口②④口 |②---|
口口口口 |③-④-|
口口口口
23
口口口口 |--①-|
①口口口 |②-③-|
口②口口 |--|
口③③口
24
③口口① |--①-|
口④②口 |②---|
口口口口 |③-④-|
口口口口
25
口口口口 |--①-|
口口口① |②-③-|
口口②口 |--|
口③③口
26
①口口③ |--①-|
口②④口 |②---|
口口口口 |③-④-|
口口口口
27
口口⑤口 |--①-|
①口口④ |②-③-|
口②③口 |④-⑤-|
口口口口
28
口①口口 |①---|
口口口口 |--②-|
口口口口 |----|
②口口②
29
口口口口 |①---|
口①①口 |----|
口②口口 |--②-|
口口口口
30
口④口口 |①---|
口②③口 |--②-|
口口①口 |③-④-|
口口口口
31
①口口① |-①--|
口口口口 |--②-|
口②③④ |③-④-|
口口口口
32
口口口口 |①-②-|
④③②① |③-④-|
口口口口 |----|
口口口口
33
口口口口 |①-②-|
口口口口 |③-④-|
口⑤⑥口 |⑤-⑥-|
①②③④
34
①①②② |①---|
口口口口 |--②-|
口口口口 |----|
口口口口
35
口口口口 |①---|
口口口口 |--②-|
①①②② |----|
口口口口
36
口口口口 |①-②-|
④③②① |③-④-|
口口口口 |----|
口口口口
37
口口口口 |①-②-|
口口口口 |③-④-|
口⑤⑥口 |⑤-⑥-|
①②③④
38
①①②② |①---|
口口口口 |--②-|
口口口口 |----|
口口口口
39
口口口口 |①---|
口口口口 |--②-|
①①②② |----|
口口口口
40
口口③② |①---|
口①①口 |----|
口口口口 |--②-|
口口口口 |③-|
41
口①口口 |①---|
②③口口 |----|
口口口口 |--②-|
口口口口 |③-|
42
口口口口 |①---|
口口①口 |----|
口口口口 |--②-|
口③②口 |③-|
43
③口口③ |①--②|
①口口① |--③-|
④口口④ |-④--|
②口口②
44
口口③② |①---|
口①①口 |----|
口口口口 |--②-|
口口口口 |③-|
45
口①口口 |①---|
②③口口 |----|
口口口口 |--②-|
口口口口 |③-|
46
口口口口 |①---|
口口①口 |----|
口口口口 |--②-|
口③②口 |③-|
47
口口口口 |①--②|
①口口① |--③-|
②口口②
③口口③

口口口口
④口口④
口口口口 |-④--|
口口口口
48
口①①口 |①--②|
口②②口 |--③-|
口③③口 |-④--|
口④④口
49
口口口口 |①---|
①口口② |--②-|
口口口口 |----|
口口口口
50
口口口口 |①---|
口口口口 |----|
口①口口 |----|
口口口口
51
口口口口 |①---|
口口口口 |--②-|
②口口① |----|
口口口口
52
口口口口 |①---|
口口口口 |----|
口口①口 |----|
口口口口
53
口口口口 |①---|
口口口口 |--②-|
口口口口 |----|
①口口②
54
口口口口 |①---|
口口口口 |--②-|
口①②口 |----|
口口口口
55
口②②口 |①---|
口①①口 |--②-|
口口口口 |----|
口口口口
56
①口口① |①---|
口口口口 |----|
口口口口 |----|
口口口口
57
口口口口 |①---|
口口口口 |----|
口口口口 |----|
口①口口
58
口口口口 |①---|
口口口口 |----|
口口口口 |----|
口口①口
59
口口口口 |①---|
口口口口 |--②-|
口①②口 |----|
口口口口
60
口口口口 |①---|
口①②口 |--②-|
口口口口 |----|
口口口口
61
口口口口 |①---|
口口口口 |--②-|
口①②口 |----|
口①②口
62
口口口口 |①---|
口口口口 |--②-|
①口口② |----|
①口口②
63
④①①④ |①-②-|
⑤②②⑤ |③-④-|
⑥③③⑥ |⑤-⑥-|
口口口口
64
④①①④ |①-②-|
⑤②②⑤ |③-④-|
⑥③③⑥ |⑤-⑥-|
口口口口
65
口口③② |①---|
口①①口 |----|
口口口口 |--②-|
口口口口 |③-|
66
口①口口 |①---|
②③口口 |----|
口口口口 |--②-|
口口口口 |③-|
67
口口口口 |①---|
口口①口 |----|
口口口口 |--②-|
口③②口 |③-|
68
③口口③ |①--②|
①口口① |--③-|
④口口④ |-④--|
②口口②
69
口口③② |①---|
口①①口 |----|
口口口口 |--②-|
口口口口 |③-|
70
口①口口 |①---|
②③口口 |----|
口口口口 |--②-|
口口口口 |③-|
71
口口口口 |①---|
口口①口 |----|
口口口口 |--②-|
口③②口 |③-|
72
口口口口 |①--②|
①口口① |--③-|
②口口②
③口口③

口口口口
④口口④
口口口口 |-④--|
口口口口
73
口①①口 |①--②|
口②②口 |--③-|
口③③口 |-④--|
口④④口
74
①口口① |①--②|
②口口② |--③-|
③口口③ |-④--|
④口口④
75
口口口口 |①---|
口①②口 |--②-|
口①②口 |----|
口口口口
76
口口口口 |①---|
口口口口 |----|
口口口口 |----|
口①①口
77
口口口口 |-①-②|
①③③① |----|
②③③② |-③--|
口口口口


不確定度: 0

最終更新:2013年03月29日 20:44