Chronos
TAG

ADVANCED

Level: 9
BPM: 128
Notes: 583

1
口口口口 |----|
口口口口 |----|
口口口口 |----|
口口口口
2
④口①④ |①--②|
口口②① |--③-|
口口②口 |-④--|
口口③③
3
口①口口 |①--②|
①②口口 |--③-|
口②口口
③③口口

口口口④
④口口口
口口口口 |-④--|
口口口口
4
⑤⑥⑨⑦ |①②③④|
口⑧④③ |⑤⑥⑦-|
①②口口 |⑧-⑨-|
口口口口
5
口⑧口口 |①②③④|
⑤⑥口⑦ |⑤⑥⑦-|
口口④③ |⑧---|
①②口口
6
①④④① |①-②-|
口口口口 |③-④-|
②⑤⑤② |⑤-⑥-|
③⑥⑥③
7
③④④③ |①-②-|
口①①口 |③-④-|
②口口② |⑤-⑥-|
⑥⑤⑤⑥
8
⑤⑥⑨⑦ |①②③④|
口⑧④③ |⑤⑥⑦-|
①②口口 |⑧-⑨-|
口口口口
9
口口口口 |①②③④|
⑤⑥口⑦ |⑤⑥⑦-|
口口④③
①②口口

口口口口
口口口口
⑧口口口 |⑧-⑨-|
口⑨⑨口
10
①口口① |①---|
口口口口 |----|
口口口口 |----|
口口口口
11
口口口口 |----|
口口口口 |----|
口口口口 |--①-|
口①①口
12
①①①① |①---|
口口口口 |----|
口口口口 |----|
口口口口
13
口口口口 |----|
口口口口 |----|
口口口口 |----|
口口口口
14
口⑧口⑦ |①②③④|
⑤⑥口口 |⑤⑥⑦-|
口口④③ |⑧-⑨⑩|
①②⑩⑨
15
口口口口 |①--②|
口口②口 |----|
口口口口 |----|
口①口口
16
⑦口⑧口 |①②③④|
口口⑥⑤ |⑤⑥⑦-|
③④口口 |⑧-⑨⑩|
⑨⑩②①
17
口口口口 |①-②③|
口②口⑤ |----|
④口③口 |④-⑤-|
口口①口
18
口口口⑦ |①②③④|
⑤⑥口口 |⑤⑥⑦-|
⑧口④③ |⑧-⑨⑩|
①②⑩⑨
19
③口口口 |①--②|
③②②④ |--③-|
口口口④ |-④--|
口①口口
20
口③②① |①②③④|
④⑤⑥口 |⑤⑥⑦⑧|
口⑨⑧⑦ |⑨⑩⑪⑫|
⑩⑪⑫口
21
①口口② |①②③④|
口③④口 |⑤⑥⑦-|
⑤口口⑥ |----|
⑦口口口
22
④④①① |--①-|
口口口口 |②---|
口口口口 |③-④-|
③③②②
23
口口①① |--①-|
③口口④ |②-③④|
口⑤⑥口 |⑤⑥|
口口②②
24
①①④④ |--①-|
口口口口 |②---|
口口口口 |③-④-|
②②③③
25
①①口口 |--①-|
⑥口口⑤ |②-③④|
口④③口 |⑤⑥|
②②口口
26
④④①① |--①-|
口口口口 |②---|
口口口口 |③-④-|
③③②②
27
口口①① |--①-|
口③④口 |②-③④|
口⑤⑥⑧ |⑤⑥⑦⑧|
⑦口②②
28
口口口口 |①---|
③口口④ |--②-|
口口口口 |③-④-|
口①口②
29
口口口口 |①---|
口口口口 |----|
口①口口
口口口口

口口口口
口口口口
口③口口 |--②③|
口口②口
30
口口口口 |①---|
⑥⑦①口 |--②③|
口口⑤④ |④⑤⑥⑦|
②③口口
31
③①①② |-①-②|
口口⑨⑧ |-③④⑤|
②口口③ |⑥⑦⑧⑨|
⑦⑥⑤④
32
口口口口 |①-②③|
口①口口 |④⑤⑥-|
②③④⑤ |⑦-⑧-|
⑥⑧口⑦
33
⑧口①口 |①-②③|
⑥口口⑦ |④⑤⑥-|
②③④⑤ |⑦-⑧-|
口口口口
34
⑩⑪⑫口 |①②③④|
口⑨⑧⑦ |⑤⑥⑦⑧|
④⑤⑥口 |⑨⑩⑪⑫|
口③②①
35
口口口⑦ |①②③④|
⑧口⑫⑪ |⑤⑥⑦⑧|
④⑤⑥⑨ |⑨⑩⑪⑫|
⑩③②①
36
口口口口 |①-②③|
口①口口 |④⑤⑥-|
②③④⑤ |⑦-⑧-|
⑥⑧口⑦
37
口①②口 |①②③④|
⑦⑦口口 |⑤⑥⑦-|
③④⑤⑥
口口口口

⑨⑨口口
口口⑧⑧
口口口口 |⑧-⑨-|
口口口口
38
⑩⑪⑫口 |①②③④|
口⑨⑧⑦ |⑤⑥⑦⑧|
④⑤⑥口 |⑨⑩⑪⑫|
口③②①
39
口口口⑦ |①②③④|
⑧口⑫⑪ |⑤⑥⑦⑧|
④⑤⑥⑨ |⑨⑩⑪⑫|
⑩③②①
40
②②口口 |①---|
口①口口 |----|
③③口口 |--②-|
口口口口 |③-|
41
口口②② |①---|
口口口口 |----|
口口③③ |--②-|
①①口口 |③-|
42
口口口口 |①---|
口③口口 |----|
口口口口 |--②-|
②口①① |③-|
43
口口⑤⑤ |①-②③|
⑥口①① |-④⑤-|
②口⑦⑦ |⑥⑦-⑧|
⑧④③③
44
②②口口 |①---|
口口口① |----|
③③口口 |--②-|
口口口口 |③-|
45
口口②② |①---|
口口口口 |----|
口口③③ |--②-|
①①口口 |③-|
46
口口口口 |①---|
口③口口 |----|
口口口口 |--②-|
②口①① |③-|
47
口口⑤⑤ |①-②③|
⑥口①① |-④⑤-|
②口⑦⑦ |⑥⑦-⑧|
⑧④③③
48
④⑤⑥口 |①②③④|
口③②① |⑤⑥⑦⑧|
口⑨⑧⑦ |⑨⑩⑪⑫|
⑩⑪⑫口
49
口④③口 |①--②|
口口口⑤ |-③④-|
②⑥口口 |⑤-⑥-|
口口口①
50
口口口口 |①-②-|
②⑥口口 |③-④-|
口口⑤③ |⑤-⑥-|
④口①口
51
②④口① |①--②|
口口口口 |-③④-|
口⑤③口 |⑤-⑥-|
口口口⑥
52
口口口口 |①②③④|
①②③④ |⑤⑥⑦-|
⑤⑥⑦口 |--⑧⑨|
口口⑨⑧
53
口口⑥⑤ |①--②|
口口③口 |-③④-|
②④口口 |--⑤⑥|
口①口口
54
口①口口 |①--②|
②口口口 |-③④-|
④⑥口③ |⑤-⑥-|
口口⑤口
55
口①①口 |①---|
口①①口 |--②-|
②口口② |----|
②口口②
56
口口①① |①②③④|
②口③③ |⑤⑥⑦-|
④口⑤⑤ |----|
⑥口⑦⑦
57
④口口口 |①-②-|
⑤③口口 |③-④-|
⑥②口口 |⑤-⑥-|
口①口口
58
口口③口 |①-②-|
口④②口 |③-④-|
口⑤①口 |⑤-⑥-|
口⑥口口
59
口口口③ |①-②-|
⑥口口② |③-④-|
⑤口口① |⑤-⑥-|
④口口口
60
口⑥口口 |①-②-|
口⑤③口 |③-④-|
口④②口 |⑤-⑥-|
口口①口
61
①口口① |①---|
②口口② |--②-|
口口口口 |----|
口口口口
62
口口口口 |①---|
口口口口 |--②-|
①口口① |----|
②口口②
63
①口口② |①②③④|
③⑦⑧④ |⑤⑥⑦⑧|
⑤⑨⑩⑥ |⑨⑩⑪⑫|
口⑪⑫口
64
口⑪⑫口 |①②③④|
①⑨⑩② |⑤⑥⑦⑧|
③⑦⑧④ |⑨⑩⑪⑫|
⑤口口⑥
65
①口口口 |①---|
口口口口 |----|
口口口口
口口口口

②②口口
口口口口
③③口口 |--②-|
口口口口 |③-|
66
口口②② |①---|
口口口口 |----|
口口③③ |--②-|
①①口口 |③-|
67
口口口口 |①---|
口③口口 |----|
口口口口 |--②-|
②口①① |③-|
68
口口⑤⑤ |①-②③|
⑥口①① |-④⑤-|
②口⑦⑦ |⑥⑦-⑧|
⑧④③③
69
②②口口 |①---|
口口口① |----|
③③口口 |--②-|
口口口口 |③-|
70
口口②② |①---|
口口口口 |----|
口口③③ |--②-|
①①口口 |③-|
71
口口口口 |①---|
口③口口 |----|
口口口口 |--②-|
②口①① |③-|
72
口口①① |①-②③|
⑥口③③ |-④⑤-|
②口⑤⑤ |⑥⑦--|
口④⑦⑦
73
①②③口 |①②③④|
口⑥⑤④ |⑤⑥⑦⑧|
⑦⑧⑨口 |⑨⑩⑪⑫|
口⑫⑪⑩
74
①②③口 |①②③④|
口⑥⑤④ |⑤⑥⑦⑧|
⑦⑧⑨口 |⑨⑩⑪⑫|
口⑫⑪⑩
75
①②③④ |①②③④|
⑤⑥⑦口 |⑤⑥⑦-|
口⑧⑨口 |⑧-⑨⑩|
口⑩口口
76
口口口口 |①---|
口口口口 |----|
口口口口 |----|
口口①口
77
①口口① |-①-②|
口③③口 |----|
口③③口 |-③--|
②口口②


不確定度: 0

最終更新:2013年03月29日 20:43