Confiserie
L.E.D. vs S-C-U

BASIC

Level: 7
BPM: 185
Notes: 539

1
口口口口 |----|
口口口口 |----|
口口口口 |----|
口口口口 |----|
2
口口口口 |①---|
口①①口 |----|
②①①③ |②---|
口口口口 |③---|
3
①口口① |①---|
口③④口 |②---|
口⑤⑥口 |③-④-|
②口口② |⑤-⑥-|
4
①口口① |①---|
③口口④ |②---|
⑤口口⑥ |③-④-|
②口口② |⑤-⑥-|
5
口①①口 |①---|
口②②口 |②---|
口③③口 |③---|
口④④口 |④---|
6
①口口② |①-②-|
③口口④ |③-④-|
⑤口口⑥ |⑤-⑥-|
⑦口口⑧ |⑦-⑧-|
7
口口口口 |①---|
②①①② |----|
②①①② |②---|
口口口口 |----|
8
①①②② |①-②-|
口⑤⑥口 |③-④-|
口⑦⑧口 |⑤-⑥-|
③③④④ |⑦-⑧-|
9
口⑥⑧口 |①-②-|
②⑤⑦④ |③-④-|
①口口③ |⑤-⑥-|
口口口口 |⑦-⑧-|
10
①口口① |①--②|
③口口③ |--③-|
口②②口 |④---|
口④④口 |----|
11
④口口② |①---|
口④②口 |②---|
口①③口 |③---|
①口口③ |④---|
12
口①①口 |①---|
②口口② |②---|
③口口③ |③---|
口④④口 |④---|
13
④口口② |①---|
口④②口 |②---|
口①③口 |③---|
①口口③ |④---|
14
口④④口 |①---|
③口口③ |②---|
②口口② |③---|
口①①口 |④---|
15
③口口② |①---|
口③②口 |②---|
口④①口 |③---|
④口口① |④---|
16
口③②口 |①---|
③口口② |②---|
④口口① |③---|
口④①口 |④---|
17
①口口① |①---|
口②②口 |②---|
口③③口 |③---|
④口口④ |④---|
18
口口口口 |----|
口口口口 |----|
口口口口 |----|
口口口口 |----|
19
④口口② |①---|
口④②口 |②---|
口①③口 |③---|
①口口③ |④---|
20
口①①口 |①---|
②口口② |②---|
③口口③ |③---|
口④④口 |④---|
21
④口口② |①---|
口④②口 |②---|
口①③口 |③---|
①口口③ |④---|
22
口④④口 |①---|
③口口③ |②---|
②口口② |③---|
口①①口 |④---|
23
③口口② |①---|
口③②口 |②---|
口④①口 |③---|
④口口① |④---|
24
口③②口 |①---|
③口口② |②---|
④口口① |③---|
口④①口 |④---|
25
①口口① |①---|
口②②口 |②---|
口③③口 |③---|
④口口④ |④---|
26
口口口口 |----|
口口口口 |----|
口口口口 |----|
口口口口 |----|
27
①④口口 |①---|
②③口口 |②---|
①④口口 |③---|
②③口口 |④---|
28
口口④① |①---|
口口③② |②---|
口口④① |③---|
口口③② |④---|
29
①口口④ |①---|
口②③口 |②---|
①口口④ |③---|
口②③口 |④---|
30
口口口口 |①---|
口口口口 |----|
口①①口 |----|
口口口口 |----|
31
④④口口 |①---|
②②口口 |②---|
③③口口 |③---|
①①口口 |④---|
32
口口④④ |①---|
口口②② |②---|
口口③③ |③---|
口口①① |④---|
33
口④④口 |①---|
口②②口 |②---|
口③③口 |③---|
口①①口 |④---|
34
口口口口 |----|
口口口口 |----|
口口口口 |----|
口口口口 |----|
35
①④口口 |①---|
②③口口 |②---|
①④口口 |③---|
②③口口 |④---|
36
口口④① |①---|
口口③② |②---|
口口④① |③---|
口口③② |④---|
37
①口口④ |①---|
口②③口 |②---|
①口口④ |③---|
口②③口 |④---|
38
口口口口 |①---|
口口口口 |----|
口①①口 |----|
口口口口 |----|
39
④④口口 |①---|
②②口口 |②---|
③③口口 |③---|
①①口口 |④---|
40
口口④④ |①---|
口口②② |②---|
口口③③ |③---|
口口①① |④---|
41
⑥口口⑥ |①---②-|
②④④② |--③---|
口③③口 |④---⑤-|
⑤①①⑤ |--⑥---|
42
口口口口 |----|
口口口口 |----|
口口口口 |----|
口口口口 |----|
43
①口口③ |①---|
口②④口 |②---|
口口口口 |③---|
口口口口 |④---|
44
口①①口 |①---|
②口口② |②---|
③口口③ |③---|
口口口口 |----|
45
①口口② |①---|
口③④口 |②---|
口口口口 |③---|
口口口口 |④---|
46
口口口口 |①---|
口口口口 |----|
口①③③ |②---|
口口②② |③---|
47
①①②② |①---|
口口口口 |----|
口口口口 |②---|
口口口口 |----|
48
口口口口 |①--②|
④②②④ |--③-|
口③③口 |④---|
口①①口 |----|
49
⑦口口⑧ |①-②-|
⑤口口⑥ |③-④-|
③口口④ |⑤-⑥-|
①口口② |⑦-⑧-|
50
口④④口 |①--②|
口②②口 |--③-|
口③③口 |④---|
口①①口 |----|
51
①口口③ |①---|
口②④口 |②---|
口口口口 |③---|
口口口口 |④---|
52
口①①口 |①---|
②口口② |②---|
③口口③ |③---|
口口口口 |----|
53
①口口② |①---|
口③④口 |②---|
口口口口 |③---|
口口口口 |④---|
54
口口口口 |①---|
口口口口 |----|
口①③③ |②---|
口口②② |③---|
55
①①②② |①---|
口口口口 |----|
口口口口 |②---|
口口口口 |----|
56
口口口口 |①--②|
④②②④ |--③-|
口③③口 |④---|
口①①口 |----|
57
⑤口口⑥ |①--②|
⑤③④⑥ |--③-|
①③④② |④--⑤|
①口口② |--⑥-|
58
口口口口 |①--②|
⑤⑤⑥⑥ |--③-|
③③④④ |④--⑤|
①①②② |--⑥-|
59
口①①口 |①---|
口口口口 |----|
口口口口 |----|
口口口口 |----|
60
口口口口 |①---|
口口口口 |----|
口①①口 |--②-|
②③④口 |③-④-|
61
口口口口 |①--②|
口⑥⑤④ |--③-|
口②③口 |--④-|
口口口① |⑤-⑥-|
62
口③②口 |①--②|
①口口口 |--③-|
④⑤⑥口 |--④-|
口口口口 |⑤-⑥-|
63
口口口口 |①--②|
口②③口 |--③-|
口口口① |--④-|
口⑥⑤④ |⑤-⑥-|
64
口口口口 |----|
口②②口 |----|
口①①口 |①---|
口口口口 |②---|
65
①口口② |①-②-|
③口口④ |③-④-|
⑤口口⑥ |⑤-⑥-|
⑦口口⑧ |⑦-⑧-|
66
口①②口 |①-②-|
口③④口 |③-④-|
口⑤⑥口 |⑤-⑥-|
口⑦⑧口 |⑦-⑧-|
67
①口口① |①---②-|
⑥③③⑥ |--③---|
④⑤⑤④ |④---⑤-|
②口口② |--⑥---|
68
口口口口 |----|
口口口口 |----|
口口口口 |----|
口口口口 |----|
69
③①①③ |①---②-|
⑥口口⑥ |--③---|
口⑤⑤口 |④---⑤-|
④②②④ |--⑥---|
70
口口口口 |----|
口口口口 |----|
口口口口 |----|
口口口口 |----|
71
①口口③ |①---|
口②④口 |②---|
口口口口 |③---|
口口口口 |④---|
72
口①①口 |①---|
②口口② |②---|
③口口③ |③---|
④口口④ |④---|
73
①口口② |①---|
口③④口 |②---|
口口口口 |③---|
口口口口 |④---|
74
口口口口 |①---|
口口口口 |②---|
口①②口 |③---|
③③④④ |④---|
75
①①②② |①---|
口口口口 |----|
口口口口 |②---|
口口口口 |----|
76
口口口口 |①--②|
④②②④ |--③-|
口③③口 |④---|
口①①口 |----|
77
①③口② |①--②|
⑤口⑥④ |--③-|
口口口口 |④--⑤|
口口口口 |--⑥-|
78
口口口口 |①--②|
口口口口 |--③-|
①③口② |④--⑤|
⑤⑥口④ |--⑥-|
79
口①①口 |①---|
口②②口 |②---|
口③③口 |③---|
口④④口 |④---|
80
①口口① |①---|
②口口② |②---|
③口口③ |③---|
④口口④ |④---|
81
口口口口 |----|
②①①② |①---|
②①①② |--②-|
口口口口 |----|
82
①①②② |①-②-|
口口口口 |③-④-|
口口口口 |----|
③③④④ |----|

不確定度: 0

最終更新:2013年03月28日 00:55