CRAZY FOR YOU

EXTREME

Level: 7
BPM: 162
Notes: 513

1
口口口口 |----|
口口口口 |----|
口口口口 |----|
口口口口 |----|
2
口口口口 |①---|
②①①③ |--②-|
口④④口 |③---|
口②③口 |--④-|
3
①口口① |①---|
②口口② |②---|
③口口③ |③---|
口口口口 |----|
4
口⑤⑧口 |①-②-|
口⑦⑥口 |③-④-|
口①④口 |⑤-⑥-|
③口口② |⑦-⑧-|
5
①口口① |①---|
②口口② |②---|
③口口③ |③---|
口口口口 |----|
6
①口①口 |①---|
①①①口 |--②-|
②①口口
口②口口

口口口口
口口口口
口④④③ |③---|
口口③口 |--④-|
7
①口口① |①---|
②口口② |②---|
③口口③ |③---|
口④④口 |④---|
8
口口口口 |①---|
②口口② |②---|
口①①口
口口口口

④③③④
口口口口
口④④口 |③---|
口口口口 |④---|
9
①口口口 |----|
口①口口 |----|
口口口口 |----|
口口口口 |--①-|
10
口口口③ |①-②-|
①口③④ |--③-|
②①④⑤ |④-⑤-|
⑥②⑤口 |--⑥-|
11
口口口口 |①-②-|
口②③口 |③---|
口口口口
口口口①

⑤④④口
口⑤口口
口口口口 |④---|
口口口口 |--⑤-|
12
口口口③ |①-②-|
①口③④ |--③-|
②①④⑤ |④-⑤-|
⑥②⑤口 |--⑥-|
13
④口口④ |①-②-|
口②③口 |③---|
口口口口 |④---|
口口口① |----|
14
口①①口 |①---|
①口口① |--②-|
②口口③ |③---|
④②③④ |--④-|
15
①口口① |①---|
②口口② |②---|
③口口③ |③-④-|
④④⑤⑤ |⑤---|
16
口①口口 |①---|
①④口④ |②---|
②①④② |③---|
③口④③ |④---|
17
②⑥⑥① |--①-|
⑥④③⑥ |②-③-|
口口⑤口 |④-⑤-|
口口口口 |⑥---|
18
口口④③ |①---|
口⑤口口 |②-③-|
口口⑥口 |--④-|
口①①② |⑤-⑥-|
19
①口口① |--①-|
②口口② |--②-|
③口口③ |--③-|
口口口口 |----|
20
③口④口 |①---|
口⑤口口 |②-③-|
口口⑥口 |--④-|
②①①口 |⑤-⑥-|
21
⑤③口⑤ |--①-|
口口②口 |②-③-|
口①口口 |--④-|
④口口④ |⑤---|
22
⑤口⑥口 |①-②-|
口①口② |③-④-|
⑦口口口 |--⑤-|
口③口④ |⑥-⑦-|
23
口口口口 |--①-|
口①口② |②-③-|
口④④口 |--④-|
口③口口 |----|
24
口口口① |①-②-|
②口口口 |③-④-|
口口口③
④口口口

⑥口口⑥
口口口口
口⑤⑤口 |⑤---|
口口口口 |⑥---|
25
口④④口 |--①-|
口①②口 |②-③-|
口③口口 |--④-|
口口口⑤ |--⑤-|
26
口口口① |①---|
口③②口 |--②-|
口口④口 |③---|
口口口口 |--④-|
27
口④④口 |①---|
③口口③ |②---|
②口口② |③---|
口①①口 |④---|
28
①口口① |①---|
口②②口 |②---|
口④④口 |③---|
③口口③ |④---|
29
口口口口 |----|
口口口口 |----|
口口口口 |----|
口口口口 |----|
30
①口口① |①---|
口②③口 |--②-|
口口④口 |③---|
口口口口 |--④-|
31
口④④口 |①---|
③口口③ |②---|
②口口② |③---|
口①①口 |④---|
32
①口口① |①---|
口②②口 |②---|
口④④口 |③---|
③口口③ |④---|
33
口口口口 |----|
口口口口 |----|
口口口口 |----|
口口口口 |----|
34
口①①口 |①---|
口口口口 |----|
口口③口 |②---|
②口口② |--③-|
35
口④④口 |①---|
③口口③ |②---|
②口口② |③---|
口①①口 |④---|
36
①口口① |①---|
口②②口 |②---|
口④④口 |③---|
③口口③ |④---|
37
口口口口 |----|
口口口② |----|
口口②① |①---|
口口①口 |②---|
38
口口口① |①---|
③口①口 |----|
②③口口 |②---|
口②口口 |③---|
39
①②②口 |①---|
③①口③ |----|
口口口口 |②---|
口口口口 |③---|
40
④口口④ |①---|
③口口③ |②---|
②口口② |③---|
口①①口 |④---|
41
口口口口 |----|
②口口口 |----|
①②口口 |①---|
口①口口 |②---|
42
①口口口 |①---|
口①口③ |----|
口口③② |②---|
口口②口 |③---|
43
口②②① |①---|
口口①口 |----|
口口口口 |②---|
③口口③ |③---|
44
②口口② |①---|
口④④口 |②---|
③口口③ |③---|
④①①④ |④---|
45
口口口口 |----|
②口口口 |----|
口②口① |①---|
口口①口 |②---|
46
口口口① |①---|
口口①③ |----|
②口③口 |②---|
口②口口 |③---|
47
①③口② |①---|
口①口④ |----|
口口口口 |--②-|
口口口口 |③-④-|
48
④⑤⑤④ |①---|
口③③口 |②-③-|
②口口② |--④-|
口①①口 |⑤---|
49
③③③③ |----|
①口口① |①---|
②口口② |②---|
口口口口 |③---|
50
口口口口 |①---|
②①①③ |--②-|
口④④口 |③---|
口②③口 |--④-|
51
①口口① |①---|
②口口② |②---|
③口口③ |③---|
口口口口 |----|
52
口⑤⑧口 |①-②-|
口⑦⑥口 |③-④-|
口①④口 |⑤-⑥-|
③口口② |⑦-⑧-|
53
①口口① |①---|
②口口② |②---|
③口口③ |③---|
口口口口 |----|
54
①口①口 |①---|
①①①口 |--②-|
②①口口
口②口口

口口口口
口口口口
口④④③ |③---|
口口③口 |--④-|
55
①口口① |①---|
②口口② |②---|
③口口③ |③---|
口④④口 |④---|
56
口口口口 |①---|
②口口② |②---|
口①①口
口口口口

④③③④
口口口口
口④④口 |③---|
口口口口 |④---|
57
①口口口 |----|
口①口口 |----|
口口口口 |----|
口口口口 |--①-|
58
口口口③ |①-②-|
①口③④ |--③-|
②①④⑤ |④-⑤-|
⑥②⑤口 |--⑥-|
59
口口口口 |①-②-|
口②③口 |③---|
口口口口
口口口①

⑤④④口
口⑤口口
口口口口 |④---|
口口口口 |--⑤-|
60
口口口③ |①-②-|
①口③④ |--③-|
②①④⑤ |④-⑤-|
⑥②⑤口 |--⑥-|
61
④口口④ |①-②-|
口②③口 |③---|
口口口口 |④---|
口口口① |----|
62
口①①口 |①---|
①口口① |--②-|
②口口③ |③---|
④②③④ |--④-|
63
①口口① |①---|
②口口② |②---|
③口口③ |③-④-|
④④⑤⑤ |⑤---|
64
口①口口 |①---|
①④口④ |②---|
②①④② |③---|
③口④③ |④---|
65
②⑥⑥① |--①-|
⑥④③⑥ |②-③-|
口口⑤口 |④-⑤-|
口口口口 |⑥---|
66
口口④③ |①---|
口⑤口口 |②-③-|
口口⑥口 |--④-|
口①①② |⑤-⑥-|
67
①口口① |--①-|
②口口② |--②-|
③口口③ |--③-|
口口口口 |----|
68
③口④口 |①---|
口⑤口口 |②-③-|
口口⑥口 |--④-|
②①①口 |⑤-⑥-|
69
⑤③口⑤ |--①-|
口口②口 |②-③-|
口①口口 |--④-|
④口口④ |⑤---|
70
⑤口⑥口 |①-②-|
口①口② |③-④-|
⑦口口口 |--⑤-|
口③口④ |⑥-⑦-|
71
口口口口 |--①-|
口①口② |②-③-|
口④④口 |--④-|
口③口口 |----|
72
口口口① |①-②-|
②口口口 |③-④-|
口口口③
④口口口

⑥口口⑥
口口口口
口⑤⑤口 |⑤---|
口口口口 |⑥---|


不确定度: 1

最終更新:2012年11月08日 04:11