歌の翼
あーたん

BASIC

Level: 3
BPM: 140
Notes: 189

1
口口口口 |----|
口口口口 |----|
口口口口 |----|
口①①口 |①---|
2
①口口② |①---|
口口口口 |----|
口口口口 |②---|
口口口口 |----|
3
口口口口 |①---|
①口口② |----|
口口口口 |②---|
口③③口 |③---|
4
①口口② |①---|
口口口口 |----|
口口口口 |②---|
口口口口 |----|
5
口口口口 |①---|
口②②口 |②---|
口口口口 |----|
口①①口 |----|
6
口口口口 |①---|
①②口口 |②---|
口口口③ |--③-|
口口口口 |----|
7
口口口② |①---|
口口口① |--②-|
口口口口 |----|
口口口口 |----|
8
口口口口 |①---|
①②口口 |②---|
口口③口 |--③-|
口口口口 |----|
9
口口②口 |①---|
口口①口 |--②-|
口口口口 |----|
口③③口 |③---|
10
口①①口 |①---|
口口口口 |----|
口口口口 |----|
②口口② |②---|
11
②口口② |①---|
口口口口 |②---|
口①①口
口口口口

口口口口
口口口口
口③③口 |----|
口口口口 |③---|
12
①口口① |①---|
口口口口 |----|
口口口口 |----|
口②②口 |②---|
13
口口口口 |①---|
①口口① |----|
口口口口 |----|
口口口口 |----|
14
口口口口 |①---|
口①①口 |----|
②口口口 |----|
口口口口 |②---|
15
口口口口 |①---|
口口口口 |②---|
口①②③ |③---|
口口口口 |----|
16
口口口口 |①---|
口①①口 |----|
口口口② |----|
口口口口 |②---|
17
口口口口 |①---|
口口口口 |②---|
③②①口 |③---|
口口口口 |----|
18
口口口口 |①---|
口①①口 |----|
②口口口 |----|
口口口口 |②---|
19
口口口口 |①---|
口口口口 |②---|
口①②③ |③---|
口口口口 |----|
20
③②②③ |①---|
口①①口 |----|
口口口口 |②---|
口口口口 |--③-|
21
口口口口 |----|
口口口口 |----|
口口口口 |----|
口口口口 |----|
22
口口口口 |①---|
口口口口 |②---|
①②③④ |③---|
口口口口 |④---|
23
口口口口 |①---|
口口口① |----|
口口口② |----|
口口口口 |②---|
24
口口口口 |①---|
口口口口 |②---|
③②①口 |③---|
口口口口 |----|
25
①口口口 |①---|
口口口口 |----|
口口口口 |----|
口口口口 |----|
26
③口口③ |①---|
口口口口 |----|
口②②口 |②---|
口①①口 |--③-|
27
口口口口 |----|
口口口口 |----|
口口口口 |----|
口①①口 |①---|
28
口口口口 |①---|
口①①口 |----|
口口口口 |----|
口②②口 |②---|
29
①口口① |①---|
口口口口 |----|
口口口口 |----|
口口口口 |----|
30
口口口口 |①---|
口①②口 |②---|
③口口口 |--③-|
口口口口 |----|
31
口口口口 |①---|
口口口口 |--②-|
口①②口 |----|
口口口口 |----|
32
口口口口 |①---|
口①②口 |②---|
口口口③ |--③-|
口口口口 |----|
33
口口口口 |①---|
③口口口 |--②-|
口②①口 |----|
口口口口 |③---|
34
口口口口 |①---|
口①②③ |②---|
口口口④ |③---|
口口口口 |④---|
35
口口口口 |①---|
口口口口 |②---|
③②①口 |③---|
口④④口 |④---|
36
口③③口 |①---|
口②②口 |②---|
口①①口 |③---|
④口口④ |④---|
37
①口口① |①---|
②口口口 |----|
口口口口 |----|
口口口口 |②---|
38
口口口口 |①---|
口口口① |----|
口口口口 |----|
口口口口 |----|
39
口口口口 |----|
口口口口 |----|
口口口口 |----|
口口口口 |----|
40
口口口口 |----|
口口口口 |----|
口口口口 |----|
口口口口 |----|
41
口口口口 |----|
口口口口 |----|
口口口口 |----|
口口口口 |----|
42
口口口口 |----|
口口口口 |----|
口口口口 |----|
口口口口 |----|
43
口口口口 |----|
口口口口 |----|
口口口口 |----|
口口口口 |----|
44
口口口口 |----|
口口口口 |----|
口口口口 |----|
口口口口 |----|
45
口口口口 |----|
口口口口 |----|
口口口口 |----|
口口口口 |----|
46
②口口② |①---|
口口口口 |----|
口①①口 |--②-|
口口口口 |----|
47
口口口口 |①---|
口①①口 |--②-|
口②②口 |----|
口口口口 |----|
48
口口口口 |①---|
口口口口 |②---|
①口口② |--③-|
口③③口 |----|
49
口①①口 |①---|
口②②口 |②---|
口③③口 |③---|
口④④口 |④---|
50
①②②① |①---|
③口口口 |--②-|
口口口口 |----|
口口口口 |③---|
51
口口口口 |①---|
口口口① |--②-|
口②②口 |----|
口③③口 |③---|
52
口①①口 |①---|
口口口口 |----|
③口口③ |②---|
②口口② |③---|
53
口口口口 |①---|
①口口① |----|
口口口口 |----|
口口口口 |----|
54
口口口口 |①---|
口①②口 |②---|
③口口口 |--③-|
口口口口 |----|
55
口口口口 |①---|
口口口口 |--②-|
口①②口 |----|
口口口口 |----|
56
口③③口 |①---|
①口口② |②---|
口口口口 |--③-|
口口口口 |----|
57
①口口① |①---|
口口口口 |----|
口口口口 |----|
②口口口 |②---|
58
口口口口 |①---|
口口口口 |②---|
口口口④ |③---|
口①②③ |④---|
59
口口口口 |①---|
④口口口 |②---|
③②①口 |③---|
口口口口 |④---|
60
口口口④ |①---|
口①②③ |②---|
口口口口 |③---|
口口口口 |④---|
61
①③③口 |①---|
口口口口 |②---|
口②②口 |③---|
口口口口 |----|


不确定度: 0

最終更新:2012年11月07日 23:48