robin
S-C-U

BASIC

Level: 4
BPM: 190
Notes: 263

1
口口口口 |----|
口口口口 |----|
口口口口 |----|
口口口口 |----|
2
口口口口 |①---|
口口口口 |--②-|
③口口口 |----|
①口②口 |③---|
3
④口口口 |--①-|
口②③口 |--②-|
口口①口 |③---|
口口口口 |④---|
4
口口口① |①---|
口口口口 |----|
口口口口 |----|
口口口口 |----|
5
口口口口 |----|
口口口口 |----|
口口口口 |----|
口口口口 |----|
6
口口口口 |①---|
口口口口 |--②-|
口口口③ |----|
口②口① |③---|
7
口口口④ |--①-|
口③②口 |--②-|
口①口口 |③---|
口口口口 |④---|
8
①口口口 |①---|
口口口口 |----|
口口口口 |----|
口口口口 |----|
9
口口口口 |----|
口口口口 |----|
口口口口 |----|
口口口口 |----|
10
口口口口 |①---|
口口口口 |--②-|
口③④口 |--③-|
①口②口 |④---|
11
口④③② |①---|
①口口口 |--②-|
口口口口 |--③-|
口口口口 |--④-|
12
口口口口 |----|
口口口口 |----|
口口口口 |----|
口口口口 |----|
13
口口口口 |①---|
①口口口 |----|
口口口口 |----|
口口口口 |----|
14
口口口口 |①---|
口口口口 |--②-|
口④③口 |--③-|
口②口① |④---|
15
②③④口 |①---|
口口口① |--②-|
口口口口 |--③-|
口口口口 |--④-|
16
口口口口 |----|
口口口① |①---|
口口口② |--②-|
口口口口 |----|
17
口口口口 |①---|
口口口口 |----|
口口口口 |----|
口口口① |----|
18
口口口口 |①---|
口②②口 |②---|
口①①口 |----|
③口口③ |--③-|
19
②口口② |--①-|
①口口① |②---|
口③④口 |③---|
口口口口 |④---|
20
口口口口 |①---|
口口口口 |②---|
①口口② |----|
口口口口 |----|
21
口口口口 |----|
口口口口 |----|
口口口口 |----|
口口口口 |----|
22
口口口口 |①---|
口②②口 |②---|
口①①口 |----|
③口口③ |--③-|
23
②口口② |--①-|
①口口① |②---|
口③④口 |③---|
口口口口 |④---|
24
口②口口 |①---|
口口口口 |--②-|
①口③口 |----|
口口口口 |③---|
25
口口口① |--①-|
口口口② |----|
口口口③ |②---|
口口口口 |③---|
26
⑤口口口 |①---|
④②②口 |②---|
口①①口 |③---|
③口口口 |④-⑤-|
27
口口口口 |--①-|
口口口口 |②---|
③①②④ |③---|
口口口口 |④---|
28
口口口口 |①---|
①口口② |②---|
口口口口 |----|
口口口口 |----|
29
口口口口 |----|
口口口口 |----|
口口口口 |----|
口口口口 |----|
30
口口口⑤ |①---|
口口②④ |②---|
口口①口 |③---|
口口口③ |④-⑤-|
31
口口口口 |--①-|
口口口口 |②---|
③①②④ |③---|
口口口口 |④---|
32
口口口口 |①---|
①口③口 |--②-|
口口口口 |----|
口②口口 |③---|
33
口口口口 |--①-|
口口口口 |----|
口②③口 |②---|
口口口① |③---|
34
口③②口 |①---|
口口口口 |②-③-|
①口口④ |--④-|
口⑤口口 |--⑤-|
35
口口口口 |----|
口口口口 |----|
口口口口 |----|
口口口口 |----|
36
口③②口 |①---|
口口口口 |②-③-|
①口口④ |--④-|
口⑤口口 |--⑤-|
37
口口口口 |----|
口口口口 |----|
口口口口 |----|
口口口口 |----|
38
口③②口 |①---|
口口口口 |②-③-|
①口口④ |--④-|
口⑤口口 |--⑤-|
39
口口口口 |----|
口口口口 |----|
口口口口 |----|
口口口口 |----|
40
口③②口 |①---|
口⑤④口 |②-③-|
①口口口 |--④-|
口口口口 |⑤---|
41
口口口③ |①-②-|
口口口口 |--③-|
口②①口 |----|
口口口口 |----|
42
口③②口 |①---|
口口口口 |②-③-|
①口口④ |--④-|
口⑤口口 |--⑤-|
43
口口口口 |----|
口口口口 |----|
口口口口 |----|
口口口口 |----|
44
口③②口 |①---|
口口口口 |②-③-|
①口口④ |--④-|
口⑤口口 |--⑤-|
45
口口口口 |----|
口口口口 |----|
口口口口 |----|
口口口口 |----|
46
口③②口 |①---|
口口口口 |②-③-|
①口口④ |--④-|
口⑤口口 |--⑤-|
47
口口口口 |----|
口口口口 |----|
口口口口 |----|
口口口口 |----|
48
口③④口 |①-②-|
口口口口 |--③-|
口口口口 |④---|
⑤①②⑥ |⑤-⑥-|
49
①口口② |--①-|
口③④口 |②---|
口⑤⑥口 |③-④-|
口口口口 |⑤-⑥-|
50
口口口口 |----|
口口口口 |----|
口口口口 |----|
口口口口 |----|
51
⑤②③口 |①---|
口口口口 |②-③-|
④口口① |--④-|
口口口口 |--⑤-|
52
口口口口 |--①-|
④①②③ |②-③-|
口⑤口口 |--④-|
口口口口 |--⑤-|
53
口口口口 |①-②-|
口口口口 |--③-|
③口①② |--④-|
⑥⑤④口 |⑤-⑥-|
54
口口口口 |----|
口口口口 |----|
口①②③ |--①-|
口口口口 |②-③-|
55
口口口口 |----|
①②③④ |----|
口口口口 |①-②-|
口口口口 |③-④-|
56
①②③④ |----|
口口口口 |--①-|
口口口口 |②-③-|
口口口口 |④---|
57
口口口口 |①---|
口口口⑤ |②-③-|
口②③口 |--④-|
①口口④ |--⑤-|
58
口口口口 |----|
口①②口 |----|
口口口口 |--①-|
口口口口 |②---|
59
⑤②③口 |①---|
口口口口 |②-③-|
④口口① |--④-|
口口口口 |--⑤-|
60
口口口口 |--①-|
④①②③ |②-③-|
口⑤口口 |--④-|
口口口口 |--⑤-|
61
口口口口 |①-②-|
口口口口 |--③-|
③口①② |--④-|
⑥⑤④口 |⑤-⑥-|
62
口口口口 |----|
口口口口 |----|
口①②③ |--①-|
口口口口 |②-③-|
63
口口口口 |----|
①②③④ |----|
口口口口 |①-②-|
口口口口 |③-④-|
64
①②③④ |----|
口口口口 |--①-|
口口口口 |②-③-|
口口口口 |④---|
65
口口口口 |①---|
口口口⑤ |②-③-|
口②③口 |--④-|
①口口④ |--⑤-|
66
口口口口 |----|
②口口口 |----|
①口口口 |①---|
口口口口 |②---|
67
①口口口 |①---|
口口口口 |----|
口口口口 |----|
口口口口 |----|
68
口①①口 |①---|
口②②口 |----|
口口口口 |②---|
口口口口 |----|
69
口口口口 |①---|
口口口口 |----|
口①①口 |----|
口口口口 |----|
70
口口口口 |①---|
①口口① |----|
口口口口 |----|
口口口口 |----|
71
口口口口 |①---|
口口口口 |----|
①口口① |----|
口口口口 |----|
72
口口口口 |①---|
口①①口 |----|
口口口口 |----|
口口口口 |----|
73
口口口口 |①---|
口口口口 |----|
口①①口 |----|
口口口口 |----|
74
口口口口 |①---|
口①①口 |----|
③口口口 |②---|
②口口口 |③---|
75
⑤⑥口口 |①-②-|
①②口口 |③-④-|
口口③④ |--⑤-|
口口口口 |⑥---|
76
口口③口 |①-②-|
口④②① |--③-|
⑤口口口 |--④-|
口口口口 |--⑤-|
77
口口口口 |----|
口口口口 |----|
口口口口 |----|
口口口口 |----|
78
口口口口 |①---|
口口口口 |----|
口口口口 |----|
口口①口 |----|
79
口口口口 |①-②-|
①②口口 |③-④-|
⑤⑥③④ |⑤-⑥-|
口口⑦⑧ |⑦-⑧-|
80
③口口② |①-②-|
口④口① |--③-|
口口⑤口 |--④-|
口口口口 |--⑤-|
81
口口口口 |----|
口口口口 |①---|
口口口口 |--②-|
口口②① |----|
82
口①口口 |①-②-|
口口②口 |③---|
口③口口 |----|
口口口口 |----|


不確定度: 0

最終更新:2013年03月27日 20:34