robin
S-C-U

ADVANCED

Level: 6
BPM: 190
Notes: 417

1
口口口口 |----|
口口口口 |----|
口口口口 |----|
口口口口 |----|
2
口口口口 |①---|
口①②口 |--②-|
口口③口 |----|
口口口口 |③---|
3
口口口② |--①-|
口口口③ |--②-|
④①口口 |③---|
口口口口 |④---|
4
口口口口 |①---|
口口口口 |----|
口口口口 |----|
口①①口 |----|
5
口口口口 |----|
口口口口 |----|
口口口口 |----|
口口口口 |----|
6
口口口口 |①---|
口②①口 |--②-|
口③口口 |----|
口口口口 |③---|
7
②口口口 |--①-|
③口口口 |--②-|
口口①④ |③---|
口口口口 |④---|
8
口口口口 |①---|
口口口口 |----|
口口口口 |----|
口①①口 |----|
9
口口口口 |----|
口口口口 |----|
口口口口 |----|
口口口口 |----|
10
口①①口 |①---|
②口口④ |②-③-|
③口口⑤ |--④-|
口口口口 |⑤---|
11
口⑤⑤口 |①-②-|
口口③口 |--③-|
口②口口 |--④-|
口①④口 |--⑤-|
12
口口口口 |----|
口口口口 |----|
口口口口 |----|
口口口口 |----|
13
口口口口 |①---|
口口口口 |----|
口口口口 |----|
口①①口 |----|
14
④①①② |①---|
⑤口口③ |②-③-|
口口口口 |--④-|
口口口口 |⑤---|
15
口⑤⑤口 |①-②-|
口③口口 |--③-|
口口②口 |--④-|
口④①口 |--⑤-|
16
口口口口 |----|
①口口① |①---|
②口口② |--②-|
口口口口 |----|
17
口口口口 |①---|
口口口口 |----|
口口口口 |----|
①口口① |----|
18
⑤③口⑤ |①---|
口①②口 |②---|
口②①口 |③---|
口④口口 |④-⑤-|
19
口口③口 |--①-|
口口口口 |②---|
①口口① |③---|
②口④② |④---|
20
③口口③ |①---|
④①①④ |②---|
口②②口 |③-④-|
⑤口口⑤ |--⑤-|
21
口②口口 |①---|
口口口口 |②---|
①口口① |③---|
口④③口 |④---|
22
⑤口③⑤ |①---|
口②①口 |②---|
口①②口 |③---|
口口④口 |④-⑤-|
23
口③口口 |--①-|
口口口口 |②---|
①口口① |③---|
②④口② |④---|
24
③口口③ |①---|
口①①口 |--②-|
口②②口 |----|
口口口口 |③---|
25
口口口口 |--①-|
①口口① |----|
②口口③ |②---|
③口口② |③---|
26
⑤③口⑤ |①---|
口①②口 |②---|
口②①口 |③---|
口④口口 |④-⑤-|
27
口口③口 |--①-|
口口口口 |②---|
①口口① |③---|
②口④② |④---|
28
⑤口口口 |①---|
①③④① |②---|
②④③② |③-④-|
口口口⑤ |--⑤-|
29
口②口① |①---|
口口口口 |②---|
口口口口 |③---|
①④③口 |④---|
30
⑤口③⑤ |①---|
口②①口 |②---|
口①②口 |③---|
口口④口 |④-⑤-|
31
口③口口 |--①-|
口口口口 |②---|
①口口① |③---|
②④口② |④---|
32
①口口① |①---|
②口口② |--②-|
口口口口 |----|
③口口③ |③---|
33
口口口口 |--①-|
口口口口 |----|
①③③① |②---|
口②②口 |③---|
34
口口①口 |①---|
②口口口 |②-③-|
③口口口 |--④-|
口④口⑤ |--⑤-|
35
口①口口 |①---|
口口口② |②-③-|
口口口③ |--④-|
⑤口④口 |--⑤-|
36
口口①口 |①---|
②口口口 |②-③-|
③口口口 |--④-|
口④口⑤ |--⑤-|
37
口①口口 |①---|
口口口② |②-③-|
口口口③ |--④-|
⑤口④口 |--⑤-|
38
口口①口 |①---|
②口口口 |②-③-|
③口口口 |--④-|
口④口⑤ |--⑤-|
39
口①口口 |①---|
口口⑥② |②-③-|
口⑤口③ |--④-|
口口④口 |⑤-⑥-|
40
①④④① |①---|
口⑤⑤口 |②-③-|
②口口② |--④-|
③口口③ |⑤---|
41
③口口③ |①-②-|
口口口⑥ |--③-|
口②②口 |--④-|
⑤①①④ |⑤-⑥-|
42
口口①口 |①---|
②口口口 |②-③-|
③口口口 |--④-|
口④口⑤ |--⑤-|
43
口①口口 |①---|
口口口② |②-③-|
口口口③ |--④-|
⑤口④口 |--⑤-|
44
口口①口 |①---|
②口口口 |②-③-|
③口口口 |--④-|
口④口⑤ |--⑤-|
45
口①口口 |①---|
口口口② |②-③-|
口口口③ |--④-|
⑤口④口 |--⑤-|
46
口口①口 |①---|
②口口口 |②-③-|
③口口口 |--④-|
口④口⑤ |--⑤-|
47
口①④口 |①---|
口⑤口② |②-③-|
口口⑥③ |--④-|
口口口口 |⑤-⑥-|
48
⑤口口③ |①-②-|
⑥口口④ |--③-|
②口口口 |④---|
口①口口 |⑤-⑥-|
49
口口①口 |--①-|
口口②口 |②---|
③③⑤⑤ |③-④-|
④④⑥⑥ |⑤-⑥-|
50
口口口口 |----|
口口口口 |----|
口口口口 |----|
口口口口 |----|
51
口口①口 |①---|
口口④④ |②-③-|
②③口口 |--④-|
口口⑤口 |--⑤-|
52
口③②① |--①-|
口口口口 |②-③-|
口④④口 |--④-|
⑤口口口 |--⑤-|
53
④⑤⑥口 |①-②-|
口口口③ |--③-|
口口口口 |--④-|
口①②口 |⑤-⑥-|
54
口口口口 |--①-|
口口口口 |②-③-|
①②③④ |④-⑤-|
口⑤⑥⑦ |⑥-⑦-|
55
⑤④③② |----|
口①①口 |①---|
口口口口 |②-③-|
口口口口 |④-⑤-|
56
口口口口 |--①-|
口口①① |--②-|
②③④⑤ |③-④-|
口口口口 |⑤---|
57
①口口口 |①---|
口口②口 |②-③-|
口③口口 |--④-|
⑤口口④ |--⑤-|
58
口③②① |--①-|
口口口口 |②-③-|
④口⑤口 |--④-|
口口口口 |⑤---|
59
④④口⑤ |①---|
口口③② |②-③-|
口口口口 |--④-|
口①口口 |--⑤-|
60
口口口口 |--①-|
①②③口 |②-③-|
⑤口口口 |--④-|
口口④④ |--⑤-|
61
口口口③ |①-②-|
口口口口 |--③-|
口①②口 |--④-|
口⑥⑤④ |⑤-⑥-|
62
口口③④ |--①-|
①②口口 |②-③-|
口⑦⑥⑤ |④-⑤-|
口口口口 |⑥-⑦-|
63
②③④⑤ |----|
口口口口 |①---|
口口口口 |②-③-|
口①①口 |④-⑤-|
64
口口口口 |--①-|
①①口口 |--②-|
⑤④③② |③-④-|
口口口口 |⑤---|
65
⑤口口④ |①---|
口②③① |②-③-|
口口口口 |--④-|
口口口口 |--⑤-|
66
口口口口 |--①-|
口⑤口口 |②-③-|
④口口口 |④---|
口③②① |⑤---|
67
口①①② |①---|
口口口口 |----|
口口口口 |----|
口口口口 |--②-|
68
口口口口 |①---|
口口口① |----|
②口口口 |②---|
口口口口 |----|
69
口口口口 |①---|
口口口口 |----|
口口口口 |----|
口①①口 |----|
70
口②②口 |①---|
①③③① |----|
口口口口 |②---|
口口口口 |③---|
71
②口口② |①---|
口口口口 |----|
口①①口 |②---|
口口口口 |----|
72
口口口口 |①---|
②口口② |----|
①口口① |②---|
口口口口 |----|
73
口口口口 |①---|
②口口② |----|
口口口口 |②---|
①口口① |----|
74
口口口口 |①---|
口口口口 |----|
①口口① |----|
口口口口 |----|
75
①口口口 |①---|
④口口② |②-③-|
⑤口口③ |--④-|
口口口口 |⑤---|
76
口口口口 |①-②-|
口口①口 |--③-|
口口②口
口③口口

口口口口
⑤口⑤口
口口口口 |--④-|
口口口④ |--⑤-|
77
口口口口 |----|
口口口口 |----|
口口口口 |----|
口口口口 |----|
78
口口口口 |①---|
口口口口 |----|
口②口② |--②-|
口①口① |----|
79
③口口① |①-②-|
④口口② |③-④-|
⑦口口⑤ |⑤-⑥-|
⑧口口⑥ |⑦-⑧-|
80
口②①口 |①-②-|
口④口口 |--③-|
口⑤⑤口 |--④-|
口口③口 |--⑤-|
81
②口口② |----|
口口口口 |①---|
①口口① |--②-|
口口口口 |----|
82
口口口口 |①-②-|
口①①口 |③---|
口②②口 |----|
口③③口 |----|


不確定度: 0

最終更新:2013年03月27日 20:33