robin
S-C-U

EXTREME

Level: 9
BPM: 190
Notes: 567

1
口口口口 |----|
口口口口 |----|
口口口口 |----|
口口口口 |----|
2
①口口③ |①---|
②口口口 |--②-|
口口口口 |----|
口口口口 |③---|
3
④口口口 |--①-|
口口口① |--②-|
口②口口 |③---|
口③口口 |④---|
4
口口口口 |①-②-|
①口口口 |③-④-|
口④口② |⑤---|
⑤口③⑥ |--⑥-|
5
口口口口 |①-②-|
口口口口 |③---|
③口①口 |----|
口②口口 |----|
6
③口口① |①---|
口口口② |--②-|
口口口口 |----|
口口口口 |③---|
7
口口口④ |--①-|
①口口口 |--②-|
口口②口 |③---|
口口③口 |④---|
8
口口口口 |①-②-|
口口口① |③-④-|
②口④口 |⑤---|
⑥③口⑤ |--⑥-|
9
口口口口 |①-②-|
口口口口 |③---|
口①口③ |----|
口口②口 |----|
10
①口口口 |①-②-|
口⑤②口 |③-④-|
口⑥③口 |--⑤-|
④口口口 |⑥---|
11
口口③口 |①-②-|
口口口① |--③-|
口④口② |--④-|
口口口⑤ |--⑤-|
12
①口③口 |--①-|
口②口④ |②-③-|
⑤口口口 |④---|
口口口口 |--⑤-|
13
口口口口 |①-②-|
④口口口 |③---|
⑤①②口 |--④-|
口①口③ |⑤---|
14
口口口① |①-②-|
口②⑤口 |③-④-|
口③⑥口 |--⑤-|
口口口④ |⑥---|
15
口③口口 |①-②-|
①口口口 |--③-|
②口④口 |--④-|
⑤口口口 |--⑤-|
16
口③②① |--①-|
④⑤②口 |②-③-|
口口口口 |④-⑤-|
口口口⑥ |--⑥-|
17
口口口口 |①-②-|
口口口口 |③---|
③口①口 |----|
口②①口 |----|
18
②②口口 |①---|
口③口口 |②---|
口④口口 |③---|
①①⑤⑤ |④-⑤-|
19
口口②② |--①-|
③口①① |②---|
口口口口 |③---|
④口口口 |④---|
20
口口口口 |①---|
口②③口 |②---|
⑤口④口 |③-④-|
口①①口 |--⑤-|
21
口口口口 |①-②-|
口口口口 |③-④-|
口①口④
口口②③

口口⑤口
口口口口
口⑥口口 |--⑤-|
口口口口 |--⑥-|
22
②②口口 |①---|
④③口口 |②---|
口口口口 |③---|
①①⑤⑤ |④-⑤-|
23
④口②② |--①-|
口口①① |②---|
口③口口 |③---|
口口口口 |④---|
24
口①口口 |①---|
口口口② |--②-|
③口口口 |----|
口口口口 |③---|
25
口口口口 |--①-|
口口②口 |----|
口③口口 |②---|
口口口① |③---|
26
①口口① |①---|
口④口③ |②---|
口⑤口口 |③---|
②口口② |④-⑤-|
27
口口口口 |--①-|
口口①口 |②---|
口口②④ |③---|
③口口口 |④---|
28
口口口② |①---|
①口口口 |②---|
口②口口
口口①口

口口口口
⑤口③口
口口④口 |③-④-|
口口口口 |--⑤-|
29
口口②③ |①-②-|
口①口④ |③-④-|
口口口口
口口口口

口口口口
口⑥口口
口口⑤口 |--⑤-|
口口口口 |--⑥-|
30
口口口口 |①---|
口④口③ |②---|
①⑤口① |③---|
②口口② |④-⑤-|
31
口口口口 |--①-|
口口①口 |②---|
④口②口 |③---|
口口口③ |④---|
32
口②口口 |①---|
②口口① |--②-|
口口口③ |----|
口口③口 |③---|
33
口口①口 |--①-|
②口口① |----|
口③口口 |②---|
口口口口 |③---|
34
口②口② |①---|
③口③口 |②-③-|
口口⑤口 |--④-|
①④①④ |--⑤-|
35
口⑤①④ |①---|
②①口① |②-③-|
③口口口 |--④-|
口口口口 |--⑤-|
36
②口②口 |①---|
口③口③ |②-③-|
口⑤口口 |--④-|
④①④① |--⑤-|
37
④①⑤口 |①---|
①口①② |②-③-|
口口口③ |--④-|
口口口口 |--⑤-|
38
口②口② |①---|
③口③口 |②-③-|
口口⑤口 |--④-|
①④①④ |--⑤-|
39
口口①口 |①---|
②①⑥① |②-③-|
③口口口 |--④-|
④口口⑤ |⑤-⑥-|
40
①口口① |①---|
口口口口 |②-③-|
④②②④ |--④-|
⑤③③⑤ |⑤---|
41
③①①③ |①-②-|
口②②口 |--③-|
口④⑤⑥ |--④-|
口口口口 |⑤-⑥-|
42
口②口② |①---|
③口③口 |②-③-|
口口⑤口 |--④-|
①④①④ |--⑤-|
43
口⑤①④ |①---|
②①口① |②-③-|
③口口口 |--④-|
口口口口 |--⑤-|
44
②口②口 |①---|
口③口③ |②-③-|
口⑤口口 |--④-|
④①④① |--⑤-|
45
④①⑤口 |①---|
①口①② |②-③-|
口口口③ |--④-|
口口口口 |--⑤-|
46
口②口② |①---|
③口③口 |②-③-|
口口⑤口 |--④-|
①④①④ |--⑤-|
47
口口①口 |①---|
②①⑥① |②-③-|
③口口口 |--④-|
④口口⑤ |⑤-⑥-|
48
①口口① |①-②-|
②口口② |--③-|
⑤③③⑤ |④---|
⑥④④⑥ |⑤-⑥-|
49
③①①④ |--①-|
⑤②②⑥ |②---|
口③④口 |③-④-|
口⑤⑥口 |⑤-⑥-|
50
口口口口 |----|
口口口口 |----|
口口口口 |----|
口口口口 |----|
51
口口④口 |①---|
①口①口 |②-③-|
口②口② |--④-|
口③⑤③ |--⑤-|
52
⑤①⑤① |--①-|
口②口② |②-③-|
口③口③ |--④-|
④口口口 |--⑤-|
53
口口口口 |①-②-|
①④①口 |--③-|
②口②⑤ |--④-|
⑥③口口 |⑤-⑥-|
54
①②口口 |--①-|
口⑦③④ |②-③-|
口口⑥⑤ |④-⑤-|
口口口口 |⑥-⑦-|
55
④①②⑤ |----|
①口口② |①---|
③口口口 |②-③-|
⑤③口④ |④-⑤-|
56
④口②⑤ |--①-|
口口口② |--②-|
③口①口 |③-④-|
⑤③口④ |⑤---|
57
口②②口 |①---|
③①①③ |②-③-|
⑤口口⑤ |--④-|
口④④口 |--⑤-|
58
①②③口 |--①-|
口⑤口⑤ |②-③-|
口口口口 |--④-|
④口④口 |⑤---|
59
口口④口 |①---|
①口①口 |②-③-|
口②口② |--④-|
口③⑤③ |--⑤-|
60
⑤①⑤① |--①-|
口②口② |②-③-|
口③口③ |--④-|
④口口口 |--⑤-|
61
口口口口 |①-②-|
①④①口 |--③-|
②口②⑤ |--④-|
⑥③口口 |⑤-⑥-|
62
①②口口 |--①-|
口⑦③④ |②-③-|
口口⑥⑤ |④-⑤-|
口口口口 |⑥-⑦-|
63
④①②⑤ |----|
①口口② |①---|
③口口口 |②-③-|
⑤③口④ |④-⑤-|
64
④口②⑤ |--①-|
口口口② |--②-|
③口①口 |③-④-|
⑤③口④ |⑤---|
65
口②②口 |①---|
③①①③ |②-③-|
⑤口口⑤ |--④-|
口④④口 |--⑤-|
66
①②③口 |--①-|
口口口口 |②-③-|
⑤口口⑤ |④---|
④口口④ |⑤---|
67
口口口口 |①---|
①①①① |----|
口口口口
口口口口

②口口口
口口③口
口口口口 |----|
口口口口 |--②③|
68
口口口③ |①--②|
口⑤口④ |--③-|
①口⑥口 |④--⑤|
口口②口 |--⑥-|
69
口口口口 |①---|
口口口口 |----|
口口口口 |----|
①口口① |----|
70
口口口① |①--②|
口口⑤② |--③-|
③⑥口口 |④--⑤|
口④口口 |--⑥-|
71
口口口口 |①---|
口④③口 |----|
②口口口 |②-③-|
①②口① |--④-|
72
口④口口 |①--②|
④口口口 |--③-|
口②⑤① |④-⑤-|
⑥口①③ |--⑥-|
73
口口①口 |①---|
口⑤④① |②---|
③②口口 |③-④-|
口③口口 |--⑤-|
74
口④口口 |①--②|
④口⑤口 |--③-|
口口②① |④---|
③口①口 |⑤---|
75
口口②口 |①-②-|
口③口③ |③-④-|
④①④口
口口口口

口⑤口⑤
⑥口⑥口
口⑦口口 |--⑤-|
口口口口 |⑥-⑦-|
76
口口①口 |①-②-|
口③口口 |--③-|
④口口② |--④-|
②⑤①口 |--⑤-|
77
②口④口 |①-②-|
口③①⑤ |③-④-|
口口口① |⑤---|
口口口⑥ |--⑥-|
78
口口口口 |①-②-|
口④口口 |③---|
③口①④ |--④-|
口②①口 |----|
79
①⑤①② |①-②-|
③⑦③④ |③-④-|
⑥②⑤⑥ |⑤-⑥-|
⑧④⑦⑧ |⑦-⑧-|
80
①口①② |①-②-|
②⑥③④ |③-④-|
口口⑤⑥ |⑤-⑥-|
⑧④⑦⑧ |⑦-⑧-|
81
口口①② |①-②-|
口⑥③④ |③-④-|
③口⑤⑥ |⑤-⑥-|
口口⑦⑧ |⑦-⑧-|
82
①口口① |①-②-|
口口②③ |③---|
③②口口 |----|
口口口口 |----|


不確定度: 0

最終更新:2013年03月27日 20:32