優勢オーバードーズ
PON

BASIC

Level: 3
BPM: 166
Notes: 176

1
口口口口 |----|
口口口口 |----|
口口口口 |----|
口口口口 |----|
2
口口口口 |----|
口口口口 |----|
口口口口 |----|
口口口口 |----|
3
口口口口 |①---|
口口口口 |----|
②口口① |②---|
口口口口 |----|
4
口②②口 |①---|
口①①口 |--②-|
口口口口 |----|
口口口口 |----|
5
口口口口 |①---|
①口口② |----|
口口口口 |②---|
口口口口 |----|
6
口口口口 |①---|
口口口口 |--②-|
口①②口 |----|
口口口口 |----|
7
口口口口 |①---|
口口口口 |----|
口口口口 |②---|
②口口① |----|
8
口口口口 |①---|
口②②口 |--②-|
口①①口 |----|
口口口口 |----|
9
口口口口 |①---|
①口口口 |----|
口②口口 |②---|
口口口口 |----|
10
口口口口 |①---|
口口口① |----|
口口②口 |②---|
口口口口 |----|
11
口①①口 |①---|
口口口口 |----|
②口口② |----|
口口口口 |--②-|
12
口口口口 |----|
口①②口 |----|
口口口口 |①---|
口口口口 |②---|
13
口口口口 |①---|
口口口口 |----|
②口口口 |②---|
口口①口 |----|
14
口②口口 |①---|
口口口① |----|
口口口口 |②---|
口口口口 |----|
15
口口口口 |①---|
口口口口 |----|
口口口② |②---|
口①口口 |----|
16
口①口口 |①---|
口口口口 |--②-|
口②口口 |----|
口口口口 |----|
17
口口口口 |①---|
口口口口 |----|
②口口口 |②---|
口口①口 |----|
18
口②口口 |①---|
口口口① |----|
口口口口 |②---|
口口口口 |----|
19
口口口口 |①---|
②口口② |----|
口①①口 |----|
口口口口 |②---|
20
口口口口 |----|
口口口口 |----|
口口口口 |----|
口口口口 |----|
21
口口口口 |①---|
口口口口 |----|
口②口口 |----|
口口①口 |②---|
22
口口口口 |----|
口口口口 |----|
口口口① |----|
口口口口 |①---|
23
口口口口 |①---|
口②口① |----|
口口口口 |----|
口口口口 |②---|
24
口口口口 |①---|
口口口口 |----|
口①②口 |----|
口口口口 |②---|
25
②口口口 |①---|
口口①口 |----|
口口口口 |②---|
口口口口 |----|
26
口①口口 |①---|
口②口口 |----|
口口口口 |②---|
口口口口 |----|
27
口口口口 |①---|
口口口口 |----|
口①口口 |----|
口口口口 |----|
28
口口①口 |①---|
口口口口 |----|
口口口口 |----|
口口口口 |----|
29
口口口口 |①---|
口口口口 |----|
口口口① |②---|
口口②口 |----|
30
口口口口 |①---|
口口口口 |----|
口①口口 |----|
口口口口 |----|
31
口口口口 |①---|
口口①口 |----|
口③口口 |②---|
口口②口 |--③-|
32
口①口口 |----|
②口口口 |----|
口口口口 |①---|
口口口口 |②---|
33
口口口口 |----|
口口口口 |①-②-|
口①②口 |----|
口口口③ |③---|
34
口口口口 |----|
口②①口 |①-②-|
口口口口 |----|
③口口口 |③---|
35
口口口③ |----|
口口口口 |①-②-|
口①②口 |----|
口口口口 |③---|
36
口口③口 |----|
口②口口 |①-②-|
口①口口 |----|
口口口口 |③---|
37
口口口口 |----|
口口口① |①---|
②口口口 |----|
口口口口 |②---|
38
口口口口 |----|
口口口口 |①---|
②口口① |----|
口口口口 |--②-|
39
口口口口 |----|
口口③口 |①---|
口口口② |②---|
口口①口 |③---|
40
口③口口 |----|
②口口口 |①---|
口①口口 |②---|
口口口口 |③---|
41
口口口口 |----|
口口③口 |①---|
口口口② |②---|
口口①口 |③---|
42
②口口② |----|
口口口口 |①---|
口口口口 |----|
①口口① |②---|
43
口口口口 |①---|
口①①口 |----|
口②②口 |②---|
③口口③ |--③-|
44
口口口口 |----|
口口口口 |----|
口口口口 |①---|
口①①口 |----|
45
口口口口 |①---|
口口口口 |----|
②口口① |②---|
口口口口 |----|
46
口②②口 |①---|
口①①口 |--②-|
口口口口 |----|
口口口口 |----|
47
口口口口 |①---|
①口口② |----|
口口口口 |②---|
口口口口 |----|
48
口口口口 |①---|
口口口口 |--②-|
口①②口 |----|
口口口口 |----|
49
口口口口 |①---|
口口口口 |----|
口口口口 |②---|
②口口① |----|
50
口口口口 |①---|
口②②口 |--②-|
口①①口 |----|
口口口口 |----|
51
口口口口 |①---|
①口口口 |----|
口②口口 |②---|
口口口口 |----|
52
口口口口 |①---|
口口口① |----|
口口②口 |②---|
口口口口 |----|
53
口口口口 |①---|
口口口口 |----|
②口口① |②---|
口口口口 |----|
54
口②②口 |①---|
口①①口 |--②-|
口口口口 |----|
口口口口 |----|
55
口口口口 |①---|
口口口口 |----|
①口口口 |②---|
口口②口 |----|
56
口②口口 |①---|
口口口① |----|
口口口口 |②---|
口口口口 |----|
57
口口口口 |①---|
口口口口 |----|
口口口口 |②---|
②口口① |----|
58
口口口口 |①---|
口②②口 |--②-|
口①①口 |----|
口口口口 |----|
59
口口口口 |①---|
①口口口 |----|
口②口口 |②---|
口口口口 |----|
60
口口口口 |①---|
口口口① |----|
口口②口 |②---|
口口口口 |----|
61
口①①口 |①---|
口口口口 |----|
口口口口 |----|
口口口口 |----|
62
口口口口 |①---|
口口口口 |----|
口口口② |②---|
口①①口 |----|
63
口口口口 |①---|
口口口② |----|
①口口口 |②---|
口口口口 |----|
64
①口口① |①---|
口②②口 |----|
口口口口 |②---|
口口口口 |----|
65
口①①口 |①---|
口口口口 |----|
口口口口 |----|
口口口口 |----|
66
口口口口 |①---|
口口口口 |----|
口口口② |②---|
口①①口 |----|
67
口口口口 |①---|
口口口② |----|
①口口口 |②---|
口口口口 |----|
68
①口口① |①---|
口②②口 |----|
口口口口 |②---|
口口口口 |----|
69
口口口口 |①---|
口口口口 |----|
③②②③ |②---|
口①①口 |--③-|
70
②口口② |----|
①③③① |①---|
口③③口 |②---|
口口口口 |--③-|


不確定度: 0

最終更新:2013年03月27日 20:29