優勢オーバードーズ
PON

ADVANCED

Level: 6
BPM: 166
Notes: 423

1
口口口口 |----|
口口口口 |----|
口口口口 |----|
口口口口 |----|
2
口③口口 |①---|
③口口口 |----|
口口口② |②---|
①口②口 |③---|
3
口④①口 |①---|
④口口① |②---|
②口口③ |③---|
口②③口 |④---|
4
②口口② |①---|
口③③口 |②-③-|
口口口口 |----|
①④口① |④---|
5
口口③口 |①---|
②口口口 |②---|
④口口① |③---|
口口口口 |④---|
6
①①口口 |①-②-|
口口口② |--③-|
口口口④ |----|
口③口口 |④---|
7
④口口③ |①---|
口④③口 |②---|
口①②口 |③---|
①口口② |④---|
8
口口②口 |①---|
②口口③ |②-③-|
口③口口
口①①口

口口口口
口口口口
口口口口 |----|
口④口口 |④---|
9
口口③口 |①---|
②口④⑤ |②---|
⑤④口① |③---|
口口口口 |④-⑤-|
10
口①口③ |--①-|
口②④口 |②---|
口④②口 |③---|
③口①口 |④---|
11
①①口口 |①---|
口口口口 |----|
口口口口
口口①①

口口口口
口口口口
口口口口 |----|
口②②口 |--②-|
12
口①①口 |----|
口口口③ |①---|
②口口③ |②---|
口口口口 |③---|
13
口口口口 |----|
口口口口 |①---|
口②①口 |----|
①口口② |②---|
14
口②口③ |----|
口③①② |①---|
①口口口 |②---|
口口口口 |③---|
15
口口口口 |----|
口口口口 |①---|
口②①口 |----|
①口口② |②---|
16
①口口① |①-②-|
②⑤⑤② |③-④-|
③口口③ |----|
口④④口 |⑤---|
17
口口口口 |----|
口口口口 |①---|
口②①口 |----|
①口口② |②---|
18
口②口③ |----|
口③①② |①---|
①口口口 |②---|
口口口口 |③---|
19
口②②口 |①---|
②口口② |----|
①口口① |----|
口①①口 |②---|
20
口口口口 |----|
口口口口 |----|
口口口口 |----|
口口口口 |----|
21
④④④④ |①---|
口③③口 |②-③-|
口②②口 |----|
①①①① |④---|
22
口口口口 |----|
口口口口 |----|
口口口口 |----|
口①①口 |①---|
23
②②口口 |①---|
口口口① |----|
口口口口 |----|
口口口口 |②---|
24
口口口口 |①---|
口口口口 |----|
口①口口
口口口口

口口②口
口口口口
口②口口 |----|
口口口口 |②---|
25
口①口口 |①---|
口口②口 |----|
口口①口 |②---|
口②口口 |----|
26
口①口② |①---|
口②口① |②---|
③口④口 |③---|
④口③口 |④---|
27
②②①① |①---|
口口③③ |----|
口口口口 |②---|
口口口口 |③---|
28
口口③口 |①---|
口②口口 |----|
①①②口 |②---|
口③口口 |③---|
29
口口口口 |①---|
①口②① |----|
①②口① |②---|
口口口口 |----|
30
口①①口 |①---|
③口口② |②---|
③口口② |③---|
口口口口 |----|
31
口口口口 |①---|
口①①口 |--②-|
口口口口 |③---|
②④④③ |--④-|
32
②口口③ |----|
口①①口 |①---|
③口口② |②---|
口口口口 |③---|
33
口口口口 |----|
口④②口 |①-②-|
口口口口 |----|
①①③③ |③-④-|
34
①①③③ |----|
口口口口 |①-②-|
口④②口 |----|
口口口口 |③-④-|
35
口口口口 |----|
③口②④ |①-②-|
④口口③ |----|
①①口口 |③-④-|
36
②口口② |----|
口③③口 |①-②-|
口口口口 |----|
④①①④ |③-④-|
37
口口口④ |----|
②口口口 |①-②-|
口③③口 |----|
口①①口 |③-④-|
38
口①①口 |----|
口口口口 |①-②-|
②口口口 |----|
口③③口 |--③-|
39
③口口④ |--①-|
⑤口口② |②-③-|
①口口口 |--④-|
口口⑥⑥ |⑤-⑥-|
40
②口口③ |--①-|
口⑤①① |②---|
口口⑤口 |③---|
④口口口 |④-⑤-|
41
口口口口 |--①-|
口口①口 |②-③-|
③①口②
口口口口

口口口口
④口口⑤
口⑥⑥口 |--④-|
⑥口口⑥ |⑤-⑥-|
42
①口口① |----|
口①①口 |--①-|
口口口口 |----|
口口口口 |----|
43
②口口② |①---|
口口口口 |②---|
口口口口
①口口①

口口口口
口④④口
口③③口 |③-④-|
口口口⑤ |--⑤-|
44
口③口口 |----|
③口口口 |①---|
口口口② |②---|
①口②口 |③---|
45
口④①口 |①---|
④口口① |②---|
②口口③ |③---|
口②③口 |④---|
46
②口口② |①---|
口③③口 |②-③-|
口口口口 |----|
①④口① |④---|
47
口口③口 |①---|
②口口口 |②---|
④口口① |③---|
口口口口 |④---|
48
①①口口 |①-②-|
口口口② |--③-|
口口口④ |----|
口③口口 |④---|
49
④口口③ |①---|
口④③口 |②---|
口①②口 |③---|
①口口② |④---|
50
口口②口 |①---|
②口口③ |②-③-|
口③口口
口①①口

口口口口
口口口口
口口口口 |----|
口④口口 |④---|
51
口口③口 |①---|
②口④⑤ |②---|
⑤④口① |③---|
口口口口 |④-⑤-|
52
口①口③ |--①-|
口②④口 |②---|
口④②口 |③---|
③口①口 |④---|
53
①口④② |①---|
口③口口 |②---|
口口③口 |③---|
②④口① |④---|
54
②口口③ |①---|
口口①口 |②-③-|
口①口口 |----|
③口口② |----|
55
①口口口 |①---|
⑥口②③ |②-③-|
口⑤口口 |--④-|
口口④口 |⑤-⑥-|
56
口口口① |--①-|
口口②口 |②-③-|
口口口③ |--④-|
口⑤④口 |⑤---|
57
④口口③ |①---|
口④③口 |②---|
口①②口 |③---|
①口口② |④---|
58
口口②口 |①---|
②口口③ |②-③-|
口③口口
口①①口

口口口口
口口口口
口口口口 |----|
口④口口 |④---|
59
口口③口 |①---|
②口④⑤ |②---|
⑤④口① |③---|
口口口口 |④-⑤-|
60
口①口③ |--①-|
口②④口 |②---|
口④②口 |③---|
③口①口 |④---|
61
①①口口 |①---|
口口②口 |----|
口口口口 |②---|
口口①① |----|
62
①①口口 |①---|
口口口口 |----|
口②口口 |②---|
口口口口 |----|
63
口口①① |①---|
口口口口 |----|
口口②口 |②---|
口口口口 |----|
64
口①口口 |①---|
口口②① |----|
②口口口 |②---|
口口口口 |----|
65
口口口口 |①---|
口②口口 |----|
口口口口 |②---|
①①口口 |----|
66
口口①① |①---|
口口口口 |----|
口口②口 |②---|
口口口口 |----|
67
①①口口 |①---|
口口口口 |----|
口②口口 |②---|
口口口口 |----|
68
口口口① |①---|
②①口口 |----|
口口②口 |②---|
口口口口 |----|
69
②口口② |①---|
口口④④ |②---|
③③口口 |③-④-|
①⑤⑤① |--⑤-|
70
⑥⑥⑥⑥ |--①-|
①②③④ |②-③-|
④③②① |④---|
⑤⑤⑤⑤ |⑤-⑥-|


不確定度: 0

最終更新:2013年03月27日 20:29