優勢オーバードーズ
PON

EXTREME

Level: 9
BPM: 166
Notes: 694

1
口口口口 |----|
口口口口 |----|
口口口口 |----|
口口口口 |----|
2
⑤口口⑥ |①-②-|
①⑤⑥③ |③-④-|
口⑥⑤口 |⑤---|
⑥④②⑤ |⑥---|
3
口②④④ |①---|
②④口① |②---|
②口③① |③---|
③③①口 |④---|
4
口③口口 |①-②-|
④口口③ |③-④-|
②口④⑥ |--⑤-|
⑤口口① |⑥---|
5
③③口口 |①-②-|
口口②口 |③---|
⑤①口⑥ |--④-|
口口口④ |⑤-⑥-|
6
①①①① |①-②-|
③③②② |--③-|
④②③⑤ |--④-|
口②③口 |⑤---|
7
②④口① |①---|
④②①③ |②---|
④①②③ |③---|
①口③② |④---|
8
③口口口 |①-②-|
口④③⑥ |③-④-|
口⑥口④ |--⑤-|
①口⑤② |⑥---|
9
口口①② |①-②-|
①②③口 |③---|
③口口口
口口口口

④口口口
⑤⑥口口
口口⑥⑤ |--④-|
口口口④ |⑤-⑥-|
10
口③②口 |--①-|
口口口① |②-③-|
①口口口
口②③口

口口口口
④⑤⑥⑦
⑦⑥⑤④ |④-⑤-|
口口口口 |⑥-⑦-|
11
②②①① |①---|
口口口口 |②---|
口口口口
①①②②

口口口口
口④④口
口③③口 |③-④-|
口⑤口口 |--⑤-|
12
②口③③ |----|
②口口③ |①---|
②口③① |②---|
②口③③ |③---|
13
口①口口 |①---|
口口②口 |②-③-|
②口口③
口③口口

口⑤口口
⑥④口⑤
口口⑥口 |④---|
口口口口 |⑤-⑥-|
14
④口口⑤ |①---|
⑤口②④ |②-③-|
②①口③ |④---|
口③口口 |⑤---|
15
口①口口 |①---|
口口②口 |②-③-|
②口口③
口③口口

口⑤④口
⑥口口⑤
口口⑥口 |④---|
口口口口 |⑤-⑥-|
16
②口口① |①-②-|
⑤①②⑥ |③-④-|
④口口③ |--⑤-|
口③④口 |⑥---|
17
口①口口 |①---|
口口②口 |②-③-|
②口口③
口③口口

口⑤口口
⑥④口⑤
口口⑥口 |④---|
口口口口 |⑤-⑥-|
18
④口口⑤ |①---|
⑤口②④ |②-③-|
②①口③ |④---|
口③口口 |⑤---|
19
口口口口 |①-②-|
口口口④ |③-④-|
③①①口
口口口②

⑤口口⑥
口⑦⑦口
口口口口 |⑤-⑥-|
口口口⑧ |⑦-⑧-|
20
③口口④ |①-②-|
⑤口口② |③-④-|
①口口⑥ |⑤-⑥-|
⑦口口⑧ |⑦-⑧-|
21
③⑦⑦② |①-②-|
口口口⑥ |③-④-|
⑤①①口 |⑤-⑥-|
口④④口 |⑦---|
22
口口口口 |----|
口①口口 |①---|
口口①口 |----|
口②②口 |②---|
23
③③口口 |①---|
口口①① |----|
①口口② |②---|
口口口口 |③---|
24
口口口① |①---|
口口口口 |----|
口①①口
口口口口

口口③口
口口口口
口③口口 |②---|
②口口口 |③---|
25
口①口口 |①---|
③口②口 |----|
①口①口 |②---|
口②口② |--③-|
26
口①口③ |①-②-|
⑧③⑥① |③-④-|
⑤②⑦④ |⑤-⑥-|
⑦口⑤口 |⑦-⑧-|
27
口口口① |①---|
口口口① |----|
口①口口
口口口口

②②口口
口口③③
口口口口 |②---|
口口口口 |③---|
28
口口③口 |①---|
口②口口 |----|
①①②口 |②---|
口③口① |③---|
29
口口口② |①---|
①口③① |--②-|
①③④① |③---|
②口口口 |--④-|
30
口①①口 |①-②-|
②口口口 |③-④-|
口口口③ |----|
口④④口 |----|
31
①①⑧⑧ |①-②-|
③口口② |③-④-|
⑥⑤⑤⑦ |⑤-⑥-|
口口口④ |⑦-⑧-|
32
④④口⑤ |--①-|
⑤口②⑤ |②-③-|
⑤③④④ |④---|
①①口口 |⑤---|
33
口口口口 |①---|
口①①口 |②-③-|
口③口③
②口②口

⑥口⑥口
口⑤口⑤
口口④口 |--④-|
口口口口 |⑤-⑥-|
34
口口口口 |--①-|
口④①口 |②-③-|
⑤②⑤② |--④-|
③⑥③⑥ |⑤-⑥-|
35
④口口⑤ |--①-|
③⑥③口 |②-③-|
口②⑥② |--④-|
⑤口①④ |⑤-⑥-|
36
③③口口 |--①-|
口口口口 |②-③-|
口②口①
口口口口

口口⑥口
口口口④
⑤口口⑦ |④-⑤-|
口口⑦口 |⑥-⑦-|
37
⑥③⑥③ |--①-|
⑤②⑤② |②-③-|
口④①口 |--④-|
口口口口 |⑤-⑥-|
38
口④⑤⑥ |--①-|
口②口② |②-③-|
③口③口 |--④-|
口①口口 |⑤-⑥-|
39
口④⑤⑥ |--①-|
③②①口 |②-③-|
口⑥⑤④ |--④-|
①②③口 |⑤-⑥-|
40
口口口口 |--①-|
②①②① |②---|
口口口口
口口口口

口口口口
口⑤口口
口口⑤口 |③---|
④口口③ |④-⑤-|
41
口②口口 |--①-|
口口①口 |--②-|
口①口口
口口②口

口口③口
④口口④
口④④口 |--③-|
口③口口 |--④-|
42
口③③口 |--①-|
④口口⑤ |②-③-|
③口口③ |--④-|
①口②口 |⑤---|
43
②②②② |①---|
口口口口 |②---|
口口口口
①①①①

口口口口
口④口④
口③口③ |③-④-|
⑤⑤口口 |--⑤-|
44
③口口④ |--①-|
①③④口 |②---|
口④③② |③---|
④口口③ |④---|
45
口②④④ |①---|
②④口① |②---|
②口③① |③---|
③③①口 |④---|
46
口③口口 |①-②-|
④口口③ |③-④-|
②口④⑥ |--⑤-|
⑤口口① |⑥---|
47
③③口口 |①-②-|
口口②口 |③---|
⑤①口⑥ |--④-|
口口口④ |⑤-⑥-|
48
①①①① |①-②-|
③③②② |--③-|
④②③⑤ |--④-|
口②③口 |⑤---|
49
②④口① |①---|
④②①③ |②---|
④①②③ |③---|
①口③② |④---|
50
③口口口 |①-②-|
口④③⑥ |③-④-|
口⑥口④ |--⑤-|
①口⑤② |⑥---|
51
口口①② |①-②-|
①②③口 |③---|
③口口口
口口口口

④口口口
⑤⑥口口
口口⑥⑤ |--④-|
口口口④ |⑤-⑥-|
52
口③②口 |--①-|
口口口① |②-③-|
①口口口
口②③口

口口口口
④⑤⑥⑦
⑦⑥⑤④ |④-⑤-|
口口口口 |⑥-⑦-|
53
②口①① |①---|
②口口口 |②---|
口口口②
①①口②

口③④口
口③④口
口④③口 |③---|
口④③口 |④---|
54
口③口⑤ |①-②-|
④口⑥③ |③-④-|
⑩口④⑦ |--⑤⑥|
①⑨⑧② |⑦⑧⑨⑩|
55
口口口口 |①-②-|
口①口② |--③-|
口口口口
③口口口

口口口口
口⑥口口
口口⑤口 |--④-|
口口口④ |⑤-⑥-|
56
②口④① |--①-|
口口口③ |--②-|
口口口口 |--③-|
口口口口 |④---|
57
②④口① |①---|
④②①③ |②---|
④①②③ |③---|
①口③② |④---|
58
③口口口 |①-②-|
口④③⑥ |③-④-|
口⑥口④ |--⑤-|
①口⑤② |⑥---|
59
口口①② |①-②-|
①②③口 |③---|
③口口口
口口口口

④口口口
⑤⑥口口
口口⑥⑤ |--④-|
口口口④ |⑤-⑥-|
60
口③②口 |--①-|
口口口① |②-③-|
①口口口
口②③口

口口口口
④⑤⑥⑦
⑦⑥⑤④ |④-⑤-|
口口口口 |⑥-⑦-|
61
口②口① |①---②-|
③口口口 |--③---|
口④口⑥ |④---⑤-|
①口⑤口 |--⑥---|
62
口②口口 |①---②-|
③口①口 |--③---|
口④口⑥ |④---⑤-|
①口⑤口 |--⑥---|
63
口②口口 |①---②-|
③口①口 |--③---|
口④口⑥ |④---⑤-|
口口⑤① |--⑥---|
64
⑥口口⑤ |①-②-③-|
⑧②①⑦ |④-⑤-⑥-|
⑩④③⑨ |⑦-⑧-⑨-|
⑫口口⑪ |⑩-⑪-⑫-|
65
口②④口 |①---②-|
③口①口 |--③---|
口④口⑥ |④---⑤-|
口①⑤口 |--⑥---|
66
口②口④ |①---②-|
③口①口 |--③---|
口④口⑥ |④---⑤-|
①口⑤口 |--⑥---|
67
口②④口 |①---②-|
③口①口 |--③---|
口④口⑥ |④---⑤-|
口口⑤① |--⑥---|
68
口⑧⑧口 |①-②-③-|
②⑦⑦① |④-⑤-⑥-|
口④③口 |⑦---|
⑥口口⑤ |⑧---|
69
④口口④ |①---|
②②②② |②---|
①①①① |③-④-|
③⑤⑤③ |--⑤-|
70
③⑤⑥④ |--①-|
①②⑤⑥ |②-③-|
⑥⑤②① |④---|
④⑥⑤③ |⑤-⑥-|


不確定度: 0

最終更新:2013年03月27日 20:26