歌の翼
あーたん

ADVANCED

Level: 7
BPM: 140
Notes: 476

1
口口口口 |----|
②①③④ |----|
口口口口 |----|
口口口口 |①②③④|
2
口②②⑨ |①-②-|
⑩口口⑧ |③④-⑤|
⑥⑦⑦④ |⑥-⑦-|
⑤①①③ |⑧⑨-⑩|
3
口①①口 |①-②-|
⑧⑦⑨⑩ |③④-⑤|
⑥口口④ |⑥---|
⑤②②③ |⑦⑧⑨⑩|
4
口②②⑨ |①-②-|
⑩口口⑧ |③④-⑤|
⑥⑦⑦④ |⑥-⑦-|
⑤①①③ |⑧⑨-⑩|
5
⑤①①⑤ |①-②-|
⑥口口口 |③④-⑤|
④口口④ |----|
③②②③ |--⑥-|
6
口①口③ |①②③-|
口口②口 |----|
口①口③
口口口口

口口口口
口口口口
④⑤口口 |--④-|
口口口口 |--⑤-|
7
口口口口 |①---|
②口口① |--②-|
口口口口 |----|
②③口① |--③-|
8
口口③口 |①-②-|
口②口口 |③---|
口口①口
口口口口

口口⑤口
口⑤口口
④口口口 |--④-|
口④口口 |--⑤-|
9
口口口① |①---|
口口①② |--②-|
口④④口 |----|
③口②③ |③-④-|
10
③口口③ |①---|
口①①口 |②-③-|
②口口②
口口口口

口口口口
口口口口
⑤口口⑤ |----|
口④④口 |④-⑤-|
11
②④④② |①-②-|
①⑥⑥① |③-④-|
口③③口 |----|
口⑤⑤口 |⑤-⑥-|
12
③口口③ |①---|
口口口口 |②-③-|
①⑤⑤① |--④-|
②④④② |⑤---|
13
口①①口 |①---|
口②口口 |----|
口口③口 |----|
口口口口 |--②③|
14
口口口口 |①---|
②③④口 |----|
口口口口 |--②-|
口①口口 |③-④-|
15
口口③③ |①-②-|
口④口① |--③-|
口口⑤口 |----|
口口②② |--④⑤|
16
口口口口 |①---|
②③④口 |----|
口口口口 |--②-|
口①口口 |③-④-|
17
口口③③ |①-②-|
口④口① |--③-|
口口⑤口 |----|
口口②② |--④⑤|
18
口口口口 |①---|
口口④口 |----|
口③口口 |--②-|
②①口口 |③-④-|
19
③口②① |①-②-|
口④口② |--③-|
口口⑤口 |----|
口口口③ |--④⑤|
20
③口口③ |①---|
⑤口口⑤ |②---|
④口口④ |③-④-|
②①口② |--⑤-|
21
口口口口 |----|
①口口口 |----|
口口口口 |----|
口口口口 |--①-|
22
口口⑤⑤ |①---|
口①③口 |②---|
口口口④ |③-④-|
口口②② |--⑤-|
23
口口口口 |----|
口③口① |----|
口口②口 |--①-|
口口口口 |②-③-|
24
⑤⑤口口 |①---|
③口口口 |②---|
①④口口 |③-④-|
②②口口 |--⑤-|
25
口口口口 |----|
①口口口 |----|
口①口口 |----|
口口口口 |--①-|
26
口⑤⑤口 |①---|
口②②① |②---|
③口①④ |③-④-|
口③④口 |--⑤-|
27
口口口口 |----|
②口口② |----|
①口口① |----|
口口口口 |①-②-|
28
①口口① |①---|
口口口口 |----|
口③③口 |----|
口②②口 |②-③-|
29
口口口口 |①---|
口①①口 |----|
口口口口
口口口口

口口口口
口②口口
口口口口 |----|
口口口口 |--②-|
30
口口口口 |①-②-|
①口②③ |③---|
④口口④ |--④-|
口口口口 |----|
31
①口口① |①---|
口③口口 |--②-|
口口口口 |----|
②口口② |--③-|
32
口口口口 |①-②-|
①口②③ |③---|
口口口口
口口口口

口口口口
口⑤⑤口
口口口口 |--④-|
口④④口 |--⑤-|
33
③①①③ |①---|
口口口口 |②-③-|
②口⑤② |----|
口口④口 |④-⑤-|
34
口口③② |①---|
口口①口 |②-③-|
口⑤口口 |----|
口④口口 |④-⑤-|
35
②③口口 |①---|
口①口口 |②-③-|
口⑤⑤口 |----|
口④④口 |④-⑤-|
36
②③③② |①---|
口①①口 |②-③-|
⑤⑤⑤⑤ |--④-|
④④④④ |⑤---|
37
①①①① |①---|
口口口口 |----|
口②②口 |----|
②②②② |②---|
38
①①①① |①---|
②①①口 |----|
口口口口 |②---|
口口口口 |----|
39
口口口口 |①---|
口②③① |----|
口口口口 |②---|
口口口口 |③---|
40
口口口口 |①---|
③口口④ |②---|
口①②口 |③---|
口口口口 |④---|
41
口口口口 |①---|
口③③口 |②---|
①③③② |③---|
口口口口 |----|
42
①⑤⑤① |①---|
③口口③ |②-③-|
口口口口 |④---|
④②②④ |⑤---|
43
②口口② |①---|
③口口口 |----|
口①①口 |②---|
口口口口 |③---|
44
口口口口 |①---|
口①②③ |②---|
口口口口 |③---|
口④④口 |④---|
45
①口口① |①---|
②口口② |----|
③口口口 |②---|
口口口口 |--③-|
46
口口口口 |①-②-|
④①口③ |③---|
口口②口 |--④-|
口口口口 |----|
47
口口口口 |①---|
口①③口 |②-③-|
口口②口 |----|
口口口④ |--④-|
48
口口口③ |①-②-|
口口口② |③---|
口④④① |--④-|
口口口口 |----|
49
口口⑥⑤ |①---|
口口口④ |②-③-|
口③口② |④---|
口口口① |⑤-⑥-|
50
口①口口 |①---|
口④⑤口 |②-③-|
口②口③ |----|
口口口口 |④-⑤-|
51
口口口口 |①---|
口⑤口① |②-③-|
口④⑤口 |----|
口②④③ |④-⑤-|
52
口①口口 |①---|
③口①③ |--②-|
④口口④ |--③-|
②口口② |④---|
53
①口口① |①---|
⑦②③口 |②③--|
口④⑤口 |④⑤--|
⑥口口⑥ |⑥-⑦-|
54
口口口口 |①-②-|
口①②③ |③---|
口口口口 |--④-|
口④④口 |----|
55
③口口口 |①---|
口②②口 |--②-|
口①①口 |----|
口口口口 |--③-|
56
口①②③ |①-②-|
口口口口 |③---|
⑤口口⑤ |--④-|
口④④口 |--⑤-|
57
③口口③ |①---|
①⑤⑤① |②-③-|
口②②口 |----|
④口口④ |④-⑤-|
58
①①①① |①---|
③⑤⑤③ |②-③-|
口口口口 |----|
④②②④ |④-⑤-|
59
①③③① |①---|
口口口口 |②-③-|
⑤②②⑤ |----|
口④④口 |④-⑤-|
60
①口口① |①---|
②②②② |--②-|
口④④口 |--③-|
口③③口 |④---|
61
口口口口 |①---|
①口口① |②---|
口口口口
②②②②

③③③③
⑤④⑥⑦
口口口口 |③---|
口口口口 |④⑤⑥⑦|
62
口②②⑨ |①-②-|
⑩口口⑧ |③④-⑤|
⑥⑦⑦④ |⑥-⑦-|
⑤①①③ |⑧⑨-⑩|
63
口①①口 |①-②-|
⑧⑦⑨⑩ |③④-⑤|
⑥口口④ |⑥---|
⑤②②③ |⑦⑧⑨⑩|
64
口②②⑨ |①-②-|
⑩口口⑧ |③④-⑤|
⑥⑦⑦④ |⑥-⑦-|
⑤①①③ |⑧⑨-⑩|
65
⑤①①⑤ |①-②-|
口口口口 |③④-⑤|
④口口④ |----|
③②②③ |----|


不确定度: 0

最終更新:2012年11月07日 23:48