カラフルミニッツ
Qrispy Joybox feat.mao

BASIC

Level: 3
BPM: 152
Notes: 140

1
口口口口 |----|
口口口口 |----|
口口口口 |----|
口口口口 |----|
2
口①口口 |①---|
口②口口 |--②-|
口③口口 |----|
口口口口 |③---|
3
口口口口 |--①-|
口口口口 |----|
口口口口 |----|
口①口口 |----|
4
口口①口 |①---|
口口②口 |--②-|
口口③口 |----|
口口口口 |③---|
5
口口口口 |----|
口口口口 |----|
口口口口 |----|
口口口口 |----|
6
口口口口 |①---|
口口口口 |----|
口口口③ |②---|
口①②口 |--③-|
7
口口②口 |--①-|
口③口① |----|
口口口口 |②---|
口口口口 |③---|
8
口口口口 |①---|
口口③口 |----|
①口口口 |②---|
口②口口 |--③-|
9
口口口口 |----|
口口口口 |----|
口口口口 |----|
口口口口 |----|
10
口口口口 |①---|
口口口口 |----|
口③口口 |②---|
①口口② |--③-|
11
口②口口 |--①-|
口口①口 |--②-|
口口口口 |----|
口口口口 |----|
12
②口口① |①---|
口口口口 |----|
口口③口 |②---|
口口口口 |--③-|
13
口口②口 |--①-|
口口①口 |--②-|
口口口口 |----|
口口口口 |----|
14
口口口口 |①---|
口口口口 |----|
口③口口 |②---|
①口口② |--③-|
15
口②口口 |--①-|
口口①口 |--②-|
口口口口 |----|
口口口口 |----|
16
①口口① |①---|
②口口② |----|
口口口口 |----|
口口口口 |--②-|
17
口口口口 |----|
口口口口 |----|
口口①口 |①---|
口口口口 |----|
18
口①口口 |①---|
口②口口 |--②-|
口③口口 |----|
口口口口 |③---|
19
口口口口 |----|
口口口口 |----|
口口口口 |----|
口口口口 |----|
20
口口口口 |①---|
①②口口 |----|
口口口口 |②---|
口口口口 |----|
21
口口口口 |①---|
口口①口 |----|
口口口② |②---|
口口口口 |----|
22
口口口口 |①---|
口口口口 |----|
口③口口 |②---|
口②①口 |③---|
23
口口口口 |①---|
口①口口 |----|
口口口口 |----|
口口口口 |----|
24
口口②① |①---|
口口口口 |----|
口口口口 |②---|
口口口口 |----|
25
口①口口 |①---|
口②口口 |②---|
口③口口 |③---|
口口口口 |----|
26
口口口口 |①---|
口口口口 |----|
口口口口 |②---|
口②①口 |----|
27
口口口口 |①---|
③口口口 |②---|
②口口口 |③---|
①口口口 |----|
28
口口口口 |①---|
口口口口 |----|
口口③口 |②---|
①口口② |--③-|
29
口口口口 |--①-|
口①②口 |②---|
口口口口 |----|
口口口口 |----|
30
口③③口 |①---|
口②②口 |--②-|
口①①口 |----|
口口口口 |③---|
31
口口口口 |----|
口口口口 |----|
口口口口 |----|
口口口口 |----|
32
口口口口 |①---|
口口口口 |--②-|
①口口口 |----|
口②口口 |----|
33
口口口口 |①---|
口口口口 |--②-|
口口口① |----|
口口②口 |----|
34
口④③口 |①---|
②口口① |--②-|
口口口口 |----|
口口口口 |③-④-|
35
口口口口 |----|
口口口口 |----|
口口口口 |----|
口口口口 |----|
36
口口口口 |①---|
口口口口 |----|
口③口口 |②---|
①口口② |--③-|
37
口②口口 |--①-|
口口①口 |--②-|
口口口口 |----|
口口口口 |----|
38
②口口① |①---|
口口口口 |----|
口口③口 |②---|
口口口口 |--③-|
39
口口②口 |--①-|
口口①口 |--②-|
口口口口 |----|
口口口口 |----|
40
口口口口 |①---|
口口口口 |----|
口③口口 |②---|
①口口② |--③-|
41
口②口口 |--①-|
口口①口 |--②-|
口口口口 |----|
口口口口 |----|
42
①口口① |①---|
②口口② |----|
口口口口 |----|
口口口口 |--②-|
43
口口口口 |----|
口口口口 |----|
口口①口 |①---|
口口口口 |----|
44
口口口口 |①---|
口口口口 |----|
口口口③ |②---|
①口②口 |--③-|
45
口口口口 |--①-|
口口口口 |--②-|
口②①口 |----|
口口口口 |----|
46
③口口口 |①---|
①口②口 |----|
口口口口 |②---|
口口口口 |--③-|
47
口口口口 |--①-|
口①口口 |--②-|
口口②口 |--③-|
口口口③ |----|
48
口口①口 |①---|
口口②口 |--②-|
口③口口 |----|
口口口口 |--③-|
49
口口口口 |----|
口口口口 |--①-|
口口②口 |--②-|
口①口口 |----|
50
口④④口 |①---|
②口口③ |--②-|
口口口口 |----|
口口口① |③-④-|
51
口口口口 |----|
口①①口 |①---|
口②②口 |②---|
口口口口 |----|
52
口口口口 |①---|
口口口③ |--②-|
口口口② |----|
口口口① |③---|
53
口口口口 |----|
口口口口 |----|
口①①口 |①---|
口口口口 |----|
54
口口口口 |①---|
③口口口 |--②-|
②口口口 |----|
①口口口 |③---|
55
口口口口 |----|
口口口口 |----|
口口口口 |----|
口口口口 |----|
56
口口口口 |①---|
口口口③ |--②-|
口口口② |----|
口口口① |③---|
57
口口口口 |----|
口口口口 |----|
口①①口 |①---|
口口口口 |----|
58
口口口口 |①---|
口③③口 |②---|
口④④口 |--③-|
①口口② |--④-|


不確定度: 0

最終更新:2013年03月27日 20:20