カラフルミニッツ
Qrispy Joybox feat.mao

ADVANCED

Level: 5
BPM: 152
Notes: 346

1
口口口口 |----|
口口口口 |----|
口口口口 |----|
口口口口 |----|
2
①口①口 |①---|
口②口② |--②-|
③口③口 |----|
口口口口 |③---|
3
口口口口 |--①-|
口口口口 |----|
口口口口 |----|
口①口① |----|
4
口①口① |①---|
②口②口 |--②-|
口③口③ |----|
口口口口 |③---|
5
口口口口 |----|
口口口口 |----|
口口口口 |----|
口口口口 |----|
6
口口口口 |①---|
口口口③ |----|
②口口口 |②---|
口口口① |--③-|
7
口②①口 |--①-|
③口口口 |②---|
口④口口 |③---|
口口口口 |④---|
8
③口口② |①---|
口口①口 |②---|
口④④口 |③---|
口⑤⑤口 |④-⑤-|
9
口口口口 |----|
口口口口 |----|
口口口口 |----|
口口口口 |----|
10
①口口② |①---|
口③③口 |②---|
口④口口 |③---|
②口⑤① |④-⑤-|
11
口口口② |--①-|
①③③口 |②-③-|
口④④口 |--④-|
⑤口口口 |--⑤-|
12
⑤②①③ |①---|
②口口① |②---|
口口口口 |③-④-|
④口⑤口 |--⑤-|
13
口②①口 |--①-|
口口口口 |--②-|
口口口口 |----|
口①口② |----|
14
口口①① |①---|
⑥口④口 |②---|
口⑤口③ |③-④-|
②②口口 |⑤-⑥-|
15
④口①④ |--①-|
口口口口 |②-③-|
口口口② |--④-|
口③口口 |----|
16
口口②口 |①---|
②①口口 |--②-|
口③③① |----|
口④④口 |③-④-|
17
①口口口 |----|
口③④② |①-②-|
②④③口 |③-④-|
口口口① |----|
18
口口口口 |①-②-|
④口口② |--③-|
③口⑥① |④---|
口口⑤口 |⑤-⑥-|
19
口口口口 |----|
口口口口 |----|
口口口口 |----|
口口口口 |----|
20
①口②口 |①---|
口口口口 |②---|
口口口口 |③---|
口③口④ |④---|
21
口口口口 |①---|
③口②③ |②---|
①④④口 |③-④-|
⑤⑥⑥⑤ |⑤-⑥-|
22
口①口② |①---|
③口④口 |②---|
口口口⑤ |③---|
口口口口 |④-⑤-|
23
口口③口 |----|
口②①② |----|
口口③口 |--①-|
口口口口 |②-③-|
24
口口口口 |①---|
③口口④ |②---|
口口口口 |③---|
①口口② |④---|
25
①口口口 |①---|
口口②口 |②---|
口②口口
口口口①

⑤口口口
口④口口
口口③口 |--③-|
口口口口 |④-⑤-|
26
口③口① |①---|
④口②口 |②---|
口口口口 |③---|
口口口口 |④---|
27
口③③口 |①---|
口②②口 |②-③-|
口①口口 |----|
口口口口 |----|
28
②口口② |①---|
口口口口 |②---|
口口口口
口①①口

口⑤⑤口
口③③口
口口口口 |③---|
口④④口 |④-⑤-|
29
口口口口 |--①-|
口口④口 |②---|
①口口① |--③-|
②③⑤② |④-⑤-|
30
②⑤⑤② |①---|
③①口③ |②-③-|
口口口口 |--④-|
口④④口 |⑤---|
31
口②口口 |----|
口口口口 |----|
①口③口 |--①-|
口口口口 |②-③-|
32
口口口① |①---|
口口⑤口 |②-③-|
口②口② |--④-|
④③口③ |--⑤-|
33
口②②口 |①---|
口口口口 |②-③-|
①③③口
口口口口

口口口口
⑥口口⑥
⑤口口⑤ |--④-|
口④④口 |⑤-⑥-|
34
口①①口 |①---|
口口口口 |②-③-|
口口口口
②③③②

④④④④
⑤⑤⑤⑤
口口口口 |----|
口口口口 |④-⑤-|
35
口口口口 |----|
口口口口 |----|
口口口口 |----|
口口口口 |----|
36
①口口② |①---|
口③③口 |②---|
口④口口 |③---|
②口⑤① |④-⑤-|
37
口口口② |--①-|
①③③口 |②-③-|
口④④口 |--④-|
⑤口口口 |--⑤-|
38
⑤②①③ |①---|
②口口① |②---|
口口口口 |③-④-|
④口⑤口 |--⑤-|
39
口②①口 |--①-|
口口口口 |--②-|
口口口口 |----|
口①口② |----|
40
口口①① |①---|
⑥口④口 |②---|
口⑤口③ |③-④-|
②②口口 |⑤-⑥-|
41
④口①④ |--①-|
口口口口 |②-③-|
口口口② |--④-|
口③口口 |----|
42
口口②口 |①---|
②①口口 |--②-|
口③③① |----|
口④④口 |③-④-|
43
①口口口 |----|
口③④② |①-②-|
②④③口 |③-④-|
口口口① |----|
44
口①①口 |①---|
③口口口 |----|
口②②③ |②---|
口口口口 |--③-|
45
口②①口 |--①-|
口口③口 |--②-|
口③口口 |--③-|
口①②口 |----|
46
③③口口 |①---|
口口口口 |----|
②口②口 |②---|
口①口① |--③-|
47
口口口口 |--①-|
口口①口 |--②-|
口①口口 |----|
口口②② |----|
48
口①口⑤ |①---|
口口④口 |--②-|
口口③口 |--③-|
②口口口 |④-⑤-|
49
口④口④ |--①-|
口口口口 |②-③-|
①口③口 |--④-|
口②口口 |----|
50
②④④② |①---|
口口口口 |--②-|
③口口口 |----|
口①①口 |③-④-|
51
口口口口 |----|
①口口① |①---|
②③③② |②---|
口④④口 |③-④-|
52
口口口② |①-②-|
口口⑥① |--③-|
④口⑤口 |④---|
③口口口 |⑤-⑥-|
53
口②②口 |----|
口口口① |①---|
口④③口 |②---|
口③④口 |③-④-|
54
口口口④ |①-②-|
口⑥口③ |--③-|
②⑤口口 |④---|
①口口口 |⑤-⑥-|
55
①口②口 |----|
口口口口 |①---|
口口③口 |②---|
口口口口 |③---|
56
④口口② |①-②-|
③口口① |--③-|
口⑥口口 |④---|
口⑤口口 |⑤-⑥-|
57
③口口口 |--①-|
④②③口 |②---|
①口④② |③---|
口口①口 |④---|
58
②口口② |①---|
口口口口 |②---|
①口口口
口口①口

口③③口
口④④口
口⑤⑤口 |③-④-|
口⑥⑥口 |⑤-⑥-|


不確定度: 0

最終更新:2013年03月27日 20:19