カラフルミニッツ
Qrispy Joybox feat.mao

EXTREME

Level: 9
BPM: 152
Notes: 595

1
口口口口 |----|
口口口口 |----|
口口口口 |----|
口口口口 |----|
2
①口口④ |①-②-|
④③口口 |③-④-|
口口②口
口口口①

口口口口
口口⑤口
⑦⑥⑧口 |⑤-⑥-|
口口口⑦ |⑦-⑧-|
3
口口⑧② |①-②-|
口①③⑦ |③-④-|
口④口⑥ |⑤-⑥-|
②口⑤口 |⑦-⑧-|
4
①口口④ |①-②-|
④③口口 |③-④-|
口口②口
口口口①

口口口口
口口⑤口
⑦⑥⑧口 |⑤-⑥-|
口口口⑦ |⑦-⑧-|
5
口②口口 |①-②-|
③口口① |③-④-|
口④口口
口口口口

⑦⑧⑨⑩
口口口口
口口口口 |⑤-⑥-|
⑤口⑥口 |⑦⑧⑨⑩|
6
口口口口 |①-②-|
③口④① |③---|
口⑥口⑤ |④-⑤-|
口②⑦口 |⑥-⑦-|
7
口口口口 |--①-|
口①③④ |②---|
②③②⑤ |③---|
③①口口 |④-⑤-|
8
口口口口 |①-②-|
口口③口 |③---|
②口口口
口口①口

口⑥⑤口
口⑥口⑤
⑦⑦口口 |④-⑤-|
⑦⑦口④ |⑥-⑦-|
9
口口口口 |----|
③口口① |----|
口口④口 |①-②-|
口②口口 |③-④-|
10
①①⑥② |①---|
③④⑤② |②---|
②⑤④③ |③-④-|
②⑥①① |⑤-⑥-|
11
①③口② |--①-|
口口口口 |②-③-|
口口口口
②口③①

⑤口口口
口口④口
口④口口 |--④-|
口口口口 |--⑤-|
12
口②①② |①---|
口①口① |②---|
口口①口
口②口②

口口⑥口
口⑥③口
口口口⑥ |③-④-|
⑤口④口 |⑤-⑥-|
13
①口口② |--①-|
②④⑥① |--②-|
口①②口 |③-④-|
③口口⑤ |⑤-⑥-|
14
口①①口 |①---|
②口口② |②---|
②口口②
口①①口

口⑤口⑥
口③④口
口④③口 |③-④-|
⑥口⑤口 |⑤-⑥-|
15
②口口口 |--①-|
①⑤③口 |②-③-|
口③⑤① |--④-|
口④④② |--⑤-|
16
②②①① |①---|
②口口① |--②-|
口口口口
①口口②

口口③③
口口④④
④④口口 |----|
③③口口 |③-④-|
17
④③口口 |----|
①②口口 |①-②-|
口口③④ |③-④-|
口口②① |----|
18
⑥口②② |①-②-|
④④①① |--③-|
③③⑥⑥ |④---|
口口⑤⑤ |⑤-⑥-|
19
口口②口 |----|
口口口口 |①---|
口①口口 |②---|
③④⑤⑥ |③④⑤⑥|
20
口③④口 |①-②-|
②⑦口⑤ |③-④-|
⑥口⑧① |⑤-⑥-|
口口口口 |⑦-⑧-|
21
口口口① |--①-|
②口口② |--②-|
口③③口 |--③-|
④⑤⑤④ |④-⑤-|
22
①口③② |①-②-|
口⑤④③ |③-④-|
⑦⑥⑤口 |⑤-⑥-|
⑧⑦口口 |⑦-⑧-|
23
口②③② |----|
口③①③ |----|
口②③② |--①-|
口口口口 |②-③-|
24
口④口口 |--①-|
①口⑥口 |②-③-|
口⑥口口 |④-⑤-|
③口⑤② |--⑥-|
25
③④①② |①-②-|
④口口① |③-④-|
①口口④
②①④③

口口⑦口
口⑥⑤⑥
口口⑦口 |--⑤-|
口口口口 |⑥-⑦-|
26
口口口口 |①-②-|
②口口口 |③---|
口③口口
①口口口

口口口④
⑦口口⑦
⑥口口⑥ |④-⑤-|
口⑤⑤口 |⑥-⑦-|
27
③④口③ |--①-|
口②②⑤ |②-③-|
⑥①①口 |④-⑤-|
口口口⑦ |⑥-⑦-|
28
②⑥⑥② |①---|
口口③口 |②---|
口④口口 |③-④-|
①口⑤口 |⑤-⑥-|
29
口口口⑤ |--①-|
口口④③ |②---|
①⑤口① |--③-|
②③④② |④-⑤-|
30
⑤①③⑤ |①---|
②口口③ |②-③-|
口口口① |--④-|
口④④口 |⑤---|
31
口⑥口口 |①-②-|
③口口④ |--③-|
⑤口⑦口 |④-⑤-|
①口口② |⑥-⑦-|
32
口口口① |①---|
口口⑥口 |②-③-|
口②口② |--④-|
④③⑤③ |⑤-⑥-|
33
②口口② |①---|
口口口口 |②-③-|
①③③口
口口口口

口口口口
⑥口口⑥
⑤口口⑤ |--④-|
口④④口 |⑤-⑥-|
34
口①①口 |①---|
口口口口 |②-③-|
口口口口
②③③②

④④④④
⑤⑤⑤⑤
口口口口 |----|
口口口口 |④-⑤-|
35
口口口口 |--①-|
口口口口 |②-③-|
口②口口
③①口口

口口口口
⑤⑥⑦口
④⑩⑨⑧ |④-⑤⑥|
口口口口 |⑦⑧⑨⑩|
36
①①⑥② |①---|
③④⑤② |②---|
②⑤④③ |③-④-|
②⑥①① |⑤-⑥-|
37
①③口② |--①-|
口口口口 |②-③-|
口口口口
②口③①

⑤口口口
口口④口
口④口口 |--④-|
口口口口 |--⑤-|
38
口②①② |①---|
口①口① |②---|
口口①口
口②口②

口口⑥口
口⑥③口
口口口⑥ |③-④-|
⑤口④口 |⑤-⑥-|
39
①口口② |--①-|
②④⑥① |--②-|
口①②口 |③-④-|
③口口⑤ |⑤-⑥-|
40
口①①口 |①---|
②口口② |②---|
②口口②
口①①口

口⑤口⑥
口③④口
口④③口 |③-④-|
⑥口⑤口 |⑤-⑥-|
41
②口口口 |--①-|
①⑤③口 |②-③-|
口③⑤① |--④-|
口④④② |--⑤-|
42
②②①① |①---|
②口口① |--②-|
口口口口
①口口②

口口③③
口口④④
④④口口 |----|
③③口口 |③-④-|
43
④③口口 |----|
①②口口 |①-②-|
口口③④ |③-④-|
口口②① |----|
44
口口②口 |①-②-|
⑦口①口 |③-④-|
④③⑤⑦ |⑤-⑥-|
口口⑥口 |--⑦-|
45
口②①口 |--①-|
口④③口 |--②-|
口③④口 |--③-|
口①②口 |--④-|
46
⑥口⑤④ |--①-|
口⑥口③ |②-③-|
⑤口口② |④-⑤-|
④③②① |--⑥-|
47
口口口口 |--①-|
口口①口 |--②-|
③①②④ |--③-|
口⑤口② |④-⑤-|
48
口①口口 |①-②-|
口②口口 |③-④-|
口③口口
④口④口

口⑦口⑦
口口⑥口
口口⑤口 |--⑤-|
口口口口 |⑥-⑦-|
49
口④口④ |--①-|
口口口口 |②-③-|
①口③口 |--④-|
口②口口 |----|
50
②④口② |①---|
口口口④ |--②-|
口③口口 |----|
口①①口 |③-④-|
51
口口①口 |----|
①②③口 |①---|
③④④② |②---|
口④④口 |③-④-|
52
②⑥⑥② |①-②-|
①⑤⑤① |--③-|
④口口④ |④---|
③口口③ |⑤-⑥-|
53
口口口口 |--①-|
口口口口 |②---|
口②①口
口①②口

③④口口
③④口口
口口⑤⑤ |③---|
口口口口 |④-⑤-|
54
⑥⑥④④ |①-②-|
⑤⑤③③ |--③-|
②②口口 |④---|
①①口口 |⑤-⑥-|
55
口⑦口⑧ |①-②-|
⑤口⑥口 |③-④-|
口③口④ |⑤-⑥-|
①口②口 |⑦-⑧-|
56
⑥⑥口口 |①-②-|
⑤⑤口口 |--③-|
②②④④ |④---|
①①③③ |⑤-⑥-|
57
口口口② |--①-|
口口②口 |②---|
口①口口
口口①口

口口口口
口口口口
⑤⑤口③ |③---|
④④口③ |④-⑤-|
58
②口口口 |--①-|
口①口口 |②---|
口口①口
口口口②

口③④⑤
③⑥⑤④
④⑤⑥③ |③-④-|
⑤④③口 |⑤-⑥-|


不確定度: 0

最終更新:2013年03月27日 20:19