歌の翼
あーたん

EXTREME

Level: 9
BPM: 140
Notes: 736

1
口口口口 |----|
口②①口 |----|
口④③口 |----|
口口口口 |①②③④|
2
②口口② |①-②-|
⑥口⑨④ |③④-⑤|
⑤⑩⑧③ |⑥-⑦-|
①⑦⑦① |⑧⑨-⑩|
3
②⑥⑤② |①-②-|
口①口口 |③④⑤⑥|
口口口口
①④③①

口口口口
⑦⑨⑧⑦
⑦⑪⑩⑦ |⑦---|
口口口口 |⑧⑨⑩⑪|
4
②口口② |①-②-|
⑥口⑨④ |③④-⑤|
⑤⑩⑧③ |⑥-⑦-|
①⑦⑦① |⑧⑨-⑩|
5
②口口② |①-②-|
⑤①口⑤ |③④-⑤|
④口口④
①③③①

⑥口口口
口⑥口口
口口口口 |----|
口口口口 |--⑥-|
6
口口口② |①-②-|
口口②口 |③---|
①口口③
口①③口

口口口口
⑤⑤口口
口口口口 |--④-|
④④口口 |--⑤-|
7
④①①④ |①-②-|
口口⑤口 |③-④⑤|
口②③口
口口口口

口口⑧口
口口口口
口口口⑥ |⑥-⑦-|
口⑦⑦口 |--⑧-|
8
口①口口 |①-②-|
口①口口 |③---|
口口②口
口③③口

口口口口
⑤⑤口口
④④口口 |--④-|
口口口口 |--⑤-|
9
①①口口 |①---|
口口④口 |②-③④|
③口口③
口②②口

口⑦口⑤
⑥口口口
口⑦口口 |⑤---|
口口口口 |⑥-⑦-|
10
口口①口 |①---|
口③口③ |②-③④|
口口④①
口②口口

口口口口
口口口口
口⑦口⑦ |⑤---|
⑥口⑥⑤ |⑥-⑦-|
11
口口口口 |①-②-|
①④①④ |③-④⑤|
②口⑤口
口③口口

口口口口
口口口口
⑦口口⑦ |⑥---|
口⑧⑧⑥ |⑦-⑧-|
12
②①①② |①---|
③口口③ |②-③-|
口⑤⑤口 |--④-|
⑤④④⑤ |⑤---|
13
②①①③ |①②③④|
④⑥⑦⑤ |⑤⑥⑦⑧|
①⑧口①
口口口口

口⑪⑩口
口口口口
口口⑨口 |⑨---|
口口口口 |--⑩⑪|
14
口口口口 |①---|
①④④口 |----|
③口口③ |--②-|
口②②口 |③-④-|
15
①口口① |①-②③|
②口口② |④-⑤-|
口口③口
口⑤⑤④

口口口口
⑥⑦口口
口口口口 |----|
口口口口 |--⑥⑦|
16
②③④口 |①---|
口口①口 |----|
口口口口 |--②-|
口口口口 |③-④-|
17
⑧口口① |①-②③|
②口⑦② |④-⑤⑥|
口⑨③⑥ |⑦---|
口⑤⑤④ |--⑧⑨|
18
④口①口 |①---|
③④口口 |----|
②③口口 |--②-|
口②口口 |③-④-|
19
口①②口 |①-②③|
口口①② |④-⑤-|
口口③口
⑤口口④

⑥⑦口口
口口口口
口口口口 |----|
口口口口 |--⑥⑦|
20
口口口① |①--②|
①③口③ |③--④|
口④②口
口口口口

⑥口口⑥
⑦口口⑦
⑦口口⑦ |⑤-⑥-|
⑤口口⑤ |--⑦-|
21
口④③口 |--①-|
⑥①②⑤ |②---|
口⑧⑦口 |③④⑤⑥|
⑩口口⑨ |⑦⑧⑨⑩|
22
①口口② |①---|
口③④口 |②---|
口口口口 |③-④-|
口⑤⑤口 |--⑤-|
23
口①口口 |----|
②口口口 |----|
口③口口 |--①-|
口口口口 |②-③-|
24
口口口口 |①---|
口口口② |②---|
口口③④ |③-④-|
①口⑤口 |--⑤-|
25
口③②口 |①-②③|
口⑤④① |④⑤⑥⑦|
口⑦⑥口
口口口口

⑪口口⑩
⑬口口⑫
⑮口口⑭ |⑧⑨⑩⑪|
口⑨⑧口 |⑫⑬⑭⑮|
26
口①③口 |①---|
口④⑤口 |②---|
口④⑤口 |③-④-|
口口②口 |--⑤-|
27
①①①口 |----|
口②口口 |----|
口②口口 |----|
口口口口 |①-②-|
28
口口⑥口 |①②③-|
口口③⑤ |④⑤⑥-|
口口④②
①①①口

口⑨口口
⑧⑫口口
⑪⑦口口 |⑦⑧⑨-|
口⑩口口 |⑩⑪⑫-|
29
①口口① |①---|
口口口口 |----|
口口口口
口口口口

③口口口
②③口②
口口口口 |②---|
②口口② |--③-|
30
口口口② |①-②-|
口口②口 |③---|
①口口③
口①③口

口口口口
⑤⑤口口
口口口口 |--④-|
④④口口 |--⑤-|
31
④①①④ |①-②-|
口口⑤口 |③-④⑤|
口②③口
口口口口

口口⑧口
口口口口
口口口⑥ |⑥-⑦-|
口⑦⑦口 |--⑧-|
32
口①口④ |①-②-|
口①⑤口 |③-④⑤|
口口②口
口③③口

口口口口
⑧⑧口口
⑦⑦口⑥ |⑥-⑦-|
口口口口 |--⑧-|
33
①①口口 |①---|
口口④口 |②-③④|
③口口③
口②②口

口⑦口⑤
⑥口口口
口⑦口口 |⑤---|
口口口口 |⑥-⑦-|
34
口口①口 |①---|
口③口③ |②-③④|
口口④①
口②口口

口口口口
口口口口
口⑦口⑦ |⑤---|
⑥口⑥⑤ |⑥-⑦-|
35
口口口口 |①-②-|
①④①④ |③-④⑤|
②口⑤口
口③口口

口口口口
口口口口
⑦口口⑦ |⑥---|
口⑧⑧⑥ |⑦-⑧-|
36
②①①② |①---|
③口口③ |②-③-|
口⑤⑤口 |--④-|
⑤④④⑤ |⑤---|
37
②①①③ |①②③④|
④⑥⑦⑤ |⑤⑥⑦⑧|
①⑧口①
口口口口

⑩口口口
口口口口
口口⑨口 |⑨---|
口口口⑩ |⑩---|
38
口口口口 |①---|
①①①② |②---|
①口口①
①①①口

口③口口
口口口口
④③口口 |③--④|
口⑤⑥⑦ |-⑤⑥⑦|
39
⑪⑫②① |①②③④|
③④⑩⑨ |⑤⑥⑦⑧|
⑮⑯⑥⑤ |⑨⑩⑪⑫|
⑦⑧⑭⑬ |⑬⑭⑮⑯|
40
⑪⑫②① |①②③④|
③④⑩⑨ |⑤⑥⑦⑧|
⑮⑯⑥⑤ |⑨⑩⑪⑫|
⑦⑧⑭⑬ |⑬⑭⑮⑯|
41
⑨⑨②① |①②③④|
③④⑨⑨ |⑤⑥⑦⑧|
口口⑥⑤ |⑨---|
⑦⑧口口 |----|
42
口口口口 |①--②|
口④③② |③④⑤-|
①口口①
⑤口口⑤

口口⑦⑥
口口⑬⑫
⑧⑨⑩⑪ |⑥⑦⑧⑨|
口口口口 |⑩⑪⑫⑬|
43
②③口② |--①-|
⑪⑩⑨⑧ |②--③|
⑦⑥⑤④ |④⑤⑥⑦|
口①①口 |⑧⑨⑩⑪|
44
⑧⑦⑥⑤ |①②③④|
⑯⑮⑭⑬ |⑤⑥⑦⑧|
⑫⑪⑩⑨ |⑨⑩⑪⑫|
④③②① |⑬⑭⑮⑯|
45
②①①口 |①②③④|
⑩⑨⑨口 |⑤⑥⑦⑧|
⑥⑧⑦⑤ |⑨---|
④①①③ |--⑩-|
46
口①②口 |①-②-|
口口口③ |③---|
口口口口 |--④-|
口④④口 |----|
47
口③③口 |①---|
②④④② |②-③-|
①口口① |----|
口口口口 |--④-|
48
①口口① |①-②-|
④口口④ |③---|
④②②④ |--④-|
③口口③ |----|
49
口③③口 |①---|
②②②② |②-③-|
口口口口
口①①口

④口口④
口口口口
口⑥口口 |④---|
⑤⑤口⑤ |⑤-⑥-|
50
口②口口 |①---|
①①口① |②-③-|
口口口口
③口口③

口口口口
口⑤口口
口④口口 |----|
口口口口 |④-⑤-|
51
①①口① |①---|
口⑤⑤口 |②-③-|
③③口③ |----|
④②口④ |④-⑤-|
52
①①①① |①---|
口口口口 |--②-|
口口口口
口②②口

口④④口
口③③口
口口口口 |--③-|
口口口口 |④---|
53
①口口① |①---|
①口口① |②③--|
口③口口
口②口口

口口口口
⑦口口口
⑥口⑤⑥ |④⑤--|
⑥口④⑥ |⑥-⑦-|
54
⑥⑤④③ |①-②-|
口①②口 |③④⑤⑥|
口口口口
口口口口

口口口口
⑭⑬⑫⑪
⑩⑨⑧⑦ |⑦⑧⑨⑩|
口口口口 |⑪⑫⑬⑭|
55
⑧⑦⑥⑤ |①②③④|
⑯⑮⑭⑬ |⑤⑥⑦⑧|
⑫⑪⑩⑨ |⑨⑩⑪⑫|
④③②① |⑬⑭⑮⑯|
56
⑧⑦⑥⑤ |①②③④|
⑪口口⑪ |⑤⑥⑦⑧|
口口⑩⑨ |⑨⑩⑪-|
④③②① |----|
57
③①①③ |①---|
③②②③ |②-③-|
口口口口
口口口口

口⑤⑤口
口口口口
口口口口 |----|
口④④口 |④-⑤-|
58
口口口口 |①②③④|
④③②① |⑤⑥⑦⑧|
⑧⑦⑥⑤
口口口口

口口口口
⑯⑮⑭⑬
口口口口 |⑨⑩⑪⑫|
⑫⑪⑩⑨ |⑬⑭⑮⑯|
59
④③②① |①②③④|
⑫⑪⑩⑨ |⑤⑥⑦⑧|
⑧⑦⑥⑤ |⑨⑩⑪⑫|
⑯⑮⑭⑬ |⑬⑭⑮⑯|
60
口②②口 |①---|
口③③口 |--②-|
口①①口 |--③-|
④口口④ |④---|
61
①③③① |①---|
③⑤④③ |②---|
口⑦⑥口 |③---|
口②②口 |④⑤⑥⑦|
62
②口口② |①-②-|
⑥口⑨④ |③④-⑤|
⑤⑩⑧③ |⑥-⑦-|
①⑦⑦① |⑧⑨-⑩|
63
②⑥⑤② |①-②-|
口①口口 |③④⑤⑥|
口口口口
①④③①

口口口口
⑦⑨⑧⑦
⑦⑪⑩⑦ |⑦---|
口口口口 |⑧⑨⑩⑪|
64
②口口② |①-②-|
⑥口⑨④ |③④-⑤|
⑤⑩⑧③ |⑥-⑦-|
①⑦⑦① |⑧⑨-⑩|
65
②④④② |①-②-|
⑤①口⑤ |③④-⑤|
⑤口口⑤ |----|
①③③① |----|


不确定度: 0

最終更新:2012年11月07日 23:47