The Wind of Gold
kors k

BASIC

Level: 5
BPM: 170
Notes: 380

1
口口口口 |----|
口口口口 |----|
口口口口 |----|
口口口口 |----|
2
口③③口 |①-②-|
④口口口 |--③-|
口①②口 |----|
口口口口 |④---|
3
口③③口 |①-②-|
口口口口 |--③-|
口①②口 |----|
口口口口 |----|
4
口③③口 |①-②-|
口口口口 |--③-|
口①②口 |----|
口口口口 |----|
5
口口口口 |----|
口口口口 |----|
口口口口 |----|
口口口口 |----|
6
口③③口 |①-②-|
④口口口 |--③-|
口①②口 |----|
口口口口 |④---|
7
口③③口 |①-②-|
口口口口 |--③-|
口①②口 |----|
口口口口 |----|
8
口口口口 |①---|
口口口口 |②---|
①口口③ |③---|
②口口④ |④---|
9
④口口④ |①---|
②口口② |②---|
口①①口 |③---|
口③③口 |④---|
10
口④④口 |①--②|
①口口口 |--③-|
②口口口 |--④-|
③口口口 |----|
11
⑤口口⑤ |①--②|
口口口① |--③-|
口④④② |-④--|
口口口③ |⑤---|
12
⑤口口⑤ |①--②|
②口口口 |--③-|
①④④口 |-④--|
③口口口 |⑤---|
13
⑤口口⑤ |①--②|
口口口② |--③-|
口④④① |-④--|
口口口③ |⑤---|
14
口④④口 |①--②|
①口口口 |--③-|
②口口口 |--④-|
③口口口 |----|
15
⑤口口⑤ |①--②|
口口口① |--③-|
口④④② |-④--|
口口口③ |⑤---|
16
⑤③口⑤ |①--②|
②口口口 |--③-|
①④④口 |-④--|
口口口口 |⑤---|
17
④口③④ |①--②|
口口口② |--③-|
口⑤⑤① |-④--|
口口口口 |⑤---|
18
口④④口 |①--②|
①口口口 |--③-|
②口口口 |--④-|
③口口口 |----|
19
⑤口口⑤ |①--②|
口口口① |--③-|
口④④② |-④--|
口口口③ |⑤---|
20
⑤口口⑤ |①--②|
②口口口 |--③-|
①④④口 |-④--|
③口口口 |⑤---|
21
⑤口口⑤ |①--②|
口口口② |--③-|
口④④① |-④--|
口口口③ |⑤---|
22
④①①④ |①--②|
口②②口 |--③-|
口③③口 |--④-|
口口口口 |----|
23
④口口④ |①--②|
①口口① |--③-|
②口口② |----|
③口口③ |④---|
24
口③③口 |①--②|
②口口② |--③-|
口①①口
口口口口

④口口④
口口口口
口⑤⑤口 |-④--|
口口口口 |⑤---|
25
④③③④ |①--②|
口口口口 |--③-|
②⑤⑤② |-④--|
口①①口 |⑤---|
26
口口口口 |①---|
①口口① |----|
口口口口 |----|
口口口口 |----|
27
口口口口 |----|
口口口口 |----|
口口口口 |----|
口口口口 |----|
28
口口口口 |①---|
①口②③ |②-③-|
口口口口 |----|
口口口口 |----|
29
口口口口 |--①-|
⑤口口⑤ |②-③-|
口①②口 |④---|
口③④口 |⑤---|
30
口口口口 |①---|
口口口口 |----|
①口口① |----|
口口口口 |----|
31
口口口口 |----|
口口口口 |----|
口口口口 |----|
口口口口 |----|
32
口口口口 |①---|
③②口① |②-③-|
口口口口 |----|
口口口口 |----|
33
口口口口 |----|
①口口② |--①-|
口口口口 |--②-|
口口口口 |----|
34
口①①口 |①---|
口口口口 |----|
口口口口 |----|
口口口口 |----|
35
口③③口 |----|
①口口② |--①-|
口口口口 |--②-|
口口口口 |--③-|
36
口口口口 |----|
口口口口 |----|
口口口口 |----|
口口口口 |----|
37
口③③口 |----|
①口口② |--①-|
口口口口 |--②-|
口口口口 |--③-|
38
①口口口 |①---|
口②口口 |②---|
③口口口 |③---|
口④口口 |④---|
39
口口口① |①---|
口口②口 |②---|
口口口③ |③---|
口口④口 |④---|
40
口口④口 |①---|
口③口口 |②---|
口口②口 |③---|
口①口口 |④---|
41
①口口① |①---|
口②②口 |----|
口③③口 |②---|
口口口口 |③---|
42
口口口口 |①---|
口口口口 |②---|
①口口③ |③---|
②口口④ |④---|
43
口口口口 |①---|
口口口口 |②---|
口①③口 |③---|
口②④口 |④---|
44
口口口口 |①---|
③①②④ |②---|
口口口口 |③---|
口口口口 |④---|
45
③①②④ |①---|
口口口口 |②---|
口口口口 |③---|
口口口口 |④---|
46
口口口口 |①---|
口①②口 |②---|
口③④口 |③---|
口口口口 |④---|
47
口①②口 |①---|
口口口口 |②---|
口口口口 |③---|
口③④口 |④---|
48
口口口口 |①---|
①口口③ |②---|
②口口④ |③---|
口口口口 |④---|
49
口①①口 |①---|
口②②口 |②---|
口③③口 |③---|
口④④口 |④---|
50
口口口口 |①---|
口口口口 |②---|
①口口③ |③---|
②口口④ |④---|
51
口口口口 |①---|
口口口口 |②---|
口①③口 |③---|
口②④口 |④---|
52
口口口口 |①---|
③①②④ |②---|
口口口口 |③---|
口口口口 |④---|
53
③①②④ |①---|
口口口口 |②---|
口口口口 |③---|
口口口口 |④---|
54
口口口口 |①---|
口①②口 |②---|
口③④口 |③---|
口口口口 |④---|
55
口①②口 |①---|
口口口口 |②---|
口口口口 |③---|
口③④口 |④---|
56
口口口口 |①---|
①口口③ |②---|
②口口④ |③---|
口口口口 |④---|
57
口①①口 |①---|
口②②口 |②---|
口③③口 |③---|
口④④口 |④---|
58
口④④口 |①--②|
①口口口 |--③-|
②口口口 |--④-|
③口口口 |----|
59
⑤口口⑤ |①--②|
口口口① |--③-|
口④④② |-④--|
口口口③ |⑤---|
60
⑤口口⑤ |①--②|
②口口口 |--③-|
①④④口 |-④--|
③口口口 |⑤---|
61
⑤口口⑤ |①--②|
口口口② |--③-|
口④④① |-④--|
口口口③ |⑤---|
62
口④④口 |①--②|
①口口口 |--③-|
②口口口 |--④-|
③口口口 |----|
63
⑤口口⑤ |①--②|
口口口① |--③-|
口④④② |-④--|
口口口③ |⑤---|
64
⑤③口⑤ |①--②|
②口口口 |--③-|
①④④口 |-④--|
口口口口 |⑤---|
65
④口③④ |①--②|
口口口② |--③-|
口⑤⑤① |-④--|
口口口口 |⑤---|
66
口④④口 |①--②|
①口口口 |--③-|
②口口口 |--④-|
③口口口 |----|
67
⑤口口⑤ |①--②|
口口口① |--③-|
口④④② |-④--|
口口口③ |⑤---|
68
⑤口口⑤ |①--②|
②口口口 |--③-|
①④④口 |-④--|
③口口口 |⑤---|
69
⑤口口⑤ |①--②|
口口口② |--③-|
口④④① |-④--|
口口口③ |⑤---|
70
④口口④ |①--②|
①口口口 |--③-|
②口口口 |--④-|
③口口口 |----|
71
⑤口口⑤ |①--②|
口口口① |--③-|
口④④② |-④--|
口口口③ |⑤---|
72
④③③④ |①--②|
②口口② |--③-|
口⑤⑤口 |-④--|
口①①口 |⑤---|
73
④③③④ |①--②|
口口口口 |--③-|
②⑤⑤② |-④--|
口①①口 |⑤---|
74
口口口口 |①---|
①口口① |----|
①口口① |----|
口口口口 |----|


不确定度: 0

最終更新:2012年11月07日 23:47