ハッピーシンセサイザ
EasyPop

BASIC

Level: 4
BPM: 127
Notes: 271

1
口口口口 |----|
口口口口 |----|
口口口口 |----|
口口口口 |----|
2
口口口口 |----|
口口口口 |----|
口口口口 |----|
口口口口 |----|
3
口口口口 |①---|
口口①口 |②---|
口口②口 |③---|
口④③口 |④---|
4
④③口口 |①---|
口②口口 |②---|
口①口口 |③---|
口口口口 |④---|
5
口口口口 |①---|
①口口口 |②---|
②口口口 |③---|
口③④口 |④---|
6
口口口口 |①---|
口③③口 |②---|
②口口① |③---|
口口口口 |----|
7
口口口口 |①---|
口口口③ |②---|
口口②口 |③---|
口口口① |----|
8
口口口口 |①---|
③口口口 |②---|
口②口口 |③---|
①口口口 |----|
9
口口口口 |①---|
口口③口 |②---|
口口口② |③---|
口口①口 |----|
10
口口口口 |①---|
口③口口 |②---|
②口口口 |③---|
口①口口 |----|
11
口口口③ |①---|
口口②口 |②---|
口口口① |③---|
口口口口 |----|
12
③口口口 |①---|
口②口口 |②---|
①口口口 |③---|
口口口口 |----|
13
口口③口 |①---|
口口口② |②---|
口口①口 |③---|
口口口口 |----|
14
口③口口 |①---|
②口口口 |②---|
口①口口 |③---|
口口口口 |----|
15
口口口口 |①---|
口②②口 |----|
口口口口 |②---|
口①①口 |----|
16
口口口口 |①---|
口口口口 |②---|
④③②① |③---|
口口口口 |④---|
17
口口口口 |①---|
口②②口 |----|
口口口口 |②---|
口①①口 |----|
18
口口口口 |①---|
口口口口 |②---|
①②③口 |③---|
口口口口 |----|
19
口口口口 |①---|
②口口② |----|
口口口口 |②---|
①口口① |----|
20
口口口口 |①---|
口口口口 |②---|
④③②① |③---|
口口口口 |④---|
21
口口口口 |①---|
②口口② |----|
口口口口 |②---|
①口口① |----|
22
口口口口 |①---|
口口口口 |②---|
①②③口 |③---|
口口口口 |----|
23
口口口口 |①---|
②口口① |----|
②口口① |②---|
口口口口 |----|
24
口口口口 |①---|
口口①口 |②---|
口口②口 |③---|
口③④口 |④---|
25
口口口口 |①---|
①口口② |----|
①口口② |②---|
口口口口 |----|
26
口口口口 |①---|
口①口口 |②---|
口②口口 |③---|
口口③口 |----|
27
口口口口 |①---|
②口口① |----|
②口口① |②---|
口口口口 |----|
28
口③④口 |①---|
口口②口 |②---|
口口①口 |③---|
口口口口 |④---|
29
口口口口 |①---|
①口口② |----|
①口口② |②---|
口口口口 |----|
30
口③③口 |①---|
口②②口 |②---|
口①①口 |③---|
口口口口 |----|
31
口口口口 |①---|
④①④① |②---|
②③②③ |③---|
口口口口 |④---|
32
口①口口 |①---|
口②口口 |②---|
口口③口 |③---|
口口④口 |④---|
33
口口口口 |①---|
①口口① |----|
口口口口 |②---|
③②②③ |③---|
34
口口口口 |①---|
口①②口 |②---|
口②①口 |----|
口口口口 |----|
35
口口口口 |①---|
①④①④ |②---|
③②③② |③---|
口口口口 |④---|
36
口口①口 |①---|
口口②口 |②---|
口③口口 |③---|
口④口口 |④---|
37
口口口口 |①---|
①口口① |----|
口口口口 |②---|
③②②③ |③---|
38
口口口口 |①---|
口②①口 |②---|
口①②口 |----|
口口口口 |----|
39
口④④口 |①---|
口口口③ |②---|
口口②口 |③---|
口口口① |④---|
40
口④④口 |①---|
③口口口 |②---|
口②口口 |③---|
①口口口 |④---|
41
④口口④ |①---|
口口③口 |②---|
口口口② |③---|
口口①口 |④---|
42
口口口口 |①---|
口②②口 |②---|
①口口① |----|
口口口口 |----|
43
口④④口 |①---|
口口口③ |②---|
口口②口 |③---|
口口口① |④---|
44
口④④口 |①---|
③口口口 |②---|
口②口口 |③---|
①口口口 |④---|
45
④口口④ |①---|
口口③口 |②---|
口口口② |③---|
口口①口 |④---|
46
口口口口 |①---|
口②②口 |②---|
①口口① |----|
口口口口 |----|
47
口口口口 |----|
口口口口 |----|
口口口口 |----|
口口口口 |----|
48
口口口口 |①---|
④①④① |②---|
②③②③ |③---|
口口口口 |④---|
49
口①口口 |①---|
口②口口 |②---|
口口③口 |③---|
口口④口 |④---|
50
口口口口 |①---|
①口口① |----|
口口口口 |②---|
③②②③ |③---|
51
口口口口 |①---|
口①②口 |②---|
口②①口 |----|
口口口口 |----|
52
口口口口 |①---|
①④①④ |②---|
③②③② |③---|
口口口口 |④---|
53
口口①口 |①---|
口口②口 |②---|
口③口口 |③---|
口④口口 |④---|
54
口口口口 |①---|
①口口① |----|
口口口口 |②---|
③②②③ |③---|
55
口口口口 |①---|
口②①口 |②---|
口①②口 |----|
口口口口 |----|
56
口④④口 |①---|
口口口③ |②---|
口口②口 |③---|
口口口① |④---|
57
口④④口 |①---|
③口口口 |②---|
口②口口 |③---|
①口口口 |④---|
58
④口口④ |①---|
口口③口 |②---|
口口口② |③---|
口口①口 |④---|
59
口口口口 |①---|
口②②口 |②---|
①口口① |----|
口口口口 |----|
60
口④④口 |①---|
口口口③ |②---|
口口②口 |③---|
口口口① |④---|
61
口④④口 |①---|
③口口口 |②---|
口②口口 |③---|
①口口口 |④---|
62
④口口④ |①---|
口口③口 |②---|
口口口② |③---|
口口①口 |④---|
63
口口口口 |①---|
口②②口 |②---|
①口口① |----|
口口口口 |----|
64
口口口口 |①---|
口口口口 |----|
口①①口 |----|
口①①口 |----|


不確定度: 0

最終更新:2013年03月27日 18:40