ハッピーシンセサイザ
EasyPop

ADVANCED

Level: 7
BPM: 127
Notes: 566

1
口口口口 |----|
口口口口 |----|
口口口口 |----|
口口口口 |----|
2
⑧口⑨口 |①-②-③-|
口口⑦口 |④-⑤-⑥-|
口②⑥④ |⑦---|
口①⑤③ |⑧-⑨-|
3
口口⑥⑦ |①-②-|
①③⑤口 |③-④-|
②④口⑧ |⑤-⑥⑦|
口口口⑨ |-⑧⑨-|
4
口口口口 |①-②-|
⑤口⑥⑦ |③-④-|
④①口口 |⑤-⑥⑦|
③②口⑧ |--⑧-|
5
口口口⑧ |①-②③|
④⑦③口 |-④-⑤|
口⑥②口 |-⑥-⑦|
①⑤口口 |--⑧-|
6
①口口口 |①-②-|
口④④口 |③-④-|
口④④口 |----|
②口口③ |----|
7
口口⑧口 |①-②-|
⑤⑨口⑦ |③-④-|
①口⑥③ |⑤-⑥⑦|
②口口④ |-⑧⑨-|
8
口⑧口口 |①-②-|
⑦口⑨⑤ |③-④-|
③⑥口① |⑤-⑥⑦|
④口口② |-⑧⑨-|
9
口口⑧口 |①-②-|
⑤⑨口⑦ |③-④-|
①口⑥③ |⑤-⑥⑦|
②口口④ |-⑧⑨-|
10
口⑧口口 |①-②-|
⑦口⑨⑤ |③-④-|
③⑥口① |⑤-⑥⑦|
④口口② |-⑧⑨-|
11
口口⑧口 |①-②-|
⑤⑨口⑦ |③-④-|
①口⑥③ |⑤-⑥⑦|
②口口④ |-⑧⑨-|
12
口⑧口口 |①-②-|
⑦口⑨⑤ |③-④-|
③⑥口① |⑤-⑥⑦|
④口口② |-⑧⑨-|
13
口口⑧口 |①-②-|
⑤⑨口⑦ |③-④-|
①口⑥③ |⑤-⑥⑦|
②口口④ |-⑧⑨-|
14
口⑧口口 |①-②-|
⑦口⑨⑤ |③-④-|
③⑥口① |⑤-⑥⑦|
④口口② |-⑧⑨-|
15
⑧口⑦口 |①-②-|
口⑤口口 |③-④-|
口口⑥口 |⑤⑥-⑦|
①②③④ |--⑧-|
16
口①口⑦ |①-②-|
口口②口 |③-④-|
口③口⑥ |⑤⑥-⑦|
口④口⑤ |----|
17
⑧口⑦口 |①-②-|
口⑤口口 |③-④-|
口口⑥口 |⑤⑥-⑦|
①②③④ |--⑧-|
18
口①口口 |①-②③|
口④②口 |-④⑤-|
口③⑤口 |----|
口口口口 |----|
19
口⑦口⑧ |①-②-|
口口⑤口 |③-④-|
口⑥口口 |⑤⑥-⑦|
④③②① |--⑧-|
20
⑦口①口 |①-②-|
口②口口 |③-④-|
⑥口③口 |⑤⑥-⑦|
⑤口④口 |----|
21
口⑦口⑧ |①-②-|
口口⑤口 |③-④-|
口⑥口口 |⑤⑥-⑦|
④③②① |--⑧-|
22
口口①口 |①-②③|
口②④口 |-④⑤-|
口⑤③口 |----|
口口口口 |----|
23
⑧口⑨口 |①②-③|
口⑦口口 |④-⑤⑥|
④口⑥② |-⑦-⑧|
③口⑤① |--⑨-|
24
⑦②口⑦ |①-②③|
⑥③口⑥ |-④-⑤|
⑤口①⑤ |-⑥-⑦|
④口口④ |----|
25
⑦口⑧口 |①-②-|
口⑥口② |③-④⑤|
③口⑤口 |-⑥-⑦|
口口④① |--⑧-|
26
口②口口 |①-②③|
④③口④ |-④-⑤|
口口①口 |----|
⑤口口⑤ |----|
27
⑦口⑧口 |①-②-|
口⑥口② |③-④⑤|
③口⑤口 |-⑥-⑦|
口口④① |--⑧-|
28
⑦②口⑦ |①-②③|
⑥③口⑥ |-④-⑤|
⑤口①⑤ |-⑥-⑦|
④口口④ |----|
29
⑦口⑧口 |①-②-|
口⑥口② |③-④⑤|
③口⑤口 |-⑥-⑦|
口口④① |--⑧-|
30
口②口口 |①-②③|
④③口④ |-④-⑤|
口口①口 |----|
⑤口口⑤ |----|
31
②①②① |①-②-|
④③④③ |③-④-|
口⑧口⑥ |⑤-⑥⑦|
⑤⑨口⑦ |-⑧⑨-|
32
①口口③ |①-②-|
⑤④②⑤ |③-④-|
口⑥⑥口 |⑤-⑥⑦|
⑧⑦⑦口 |--⑧-|
33
③⑦⑦① |①-②③|
⑥口口⑥ |-④-⑤|
④⑤⑤② |-⑥-⑦|
⑧口口口 |--⑧-|
34
①口口③ |①-②-|
口④④口 |③-④-|
口④④口
口口口②

口口口口
口口口口
口口口口 |⑤---|
⑤口口⑥ |⑥---|
35
②①②① |①-②-|
④③④③ |③-④-|
⑥口口口 |⑤⑥-⑦|
⑤⑧口⑦ |--⑧-|
36
①口口③ |①-②-|
⑤④②⑤ |③-④-|
口⑥⑥口 |⑤-⑥⑦|
⑧⑦⑦口 |--⑧-|
37
③⑦⑦① |①-②③|
⑥口口⑥ |-④-⑤|
④⑤⑤② |-⑥-⑦|
⑧口口口 |--⑧-|
38
①口口③ |①-②-|
⑦④④口 |③-④-|
口④④⑥ |⑤--⑥|
⑤口口② |--⑦-|
39
口口口口 |①-②-|
口口④口 |③-④-|
口口③口
口①口②

⑧⑧口⑤
口口口口
口口口⑥ |⑤-⑥⑦|
口口口⑦ |--⑧-|
40
口口口口 |①-②-|
口④口口 |③-④-|
口③口口
②口①口

⑤口⑧⑧
口口口口
⑥口口口 |⑤-⑥⑦|
⑦口口口 |--⑧-|
41
口口口口 |①-②-|
口口④口 |③-④-|
口口③口
口①口②

口⑧口⑤
口口口口
口口⑧口 |⑤-⑥⑦|
口⑦⑥口 |--⑧-|
42
②口①③ |①-②-|
口④④口 |③-④-|
③①口②
口口口口

口口口口
口口口口
口口口⑥ |⑤---|
⑤口口口 |⑥---|
43
口口口口 |①-②-|
口口④口 |③-④-|
口口③口
口①口②

⑧⑧口⑤
口口口口
口口口⑥ |⑤-⑥⑦|
口口口⑦ |--⑧-|
44
口口口口 |①-②-|
口④口口 |③-④-|
口③口口
②口①口

⑤口⑧⑧
口口口口
⑥口口口 |⑤-⑥⑦|
⑦口口口 |--⑧-|
45
口口口口 |①-②-|
口口④口 |③-④-|
口口③口
口①口②

口⑧口⑤
口口口口
口口⑧口 |⑤-⑥⑦|
口⑦⑥口 |--⑧-|
46
②口①③ |①-②-|
口④④口 |③-④-|
③①口②
口口口口

口口口口
口口口口
口口口⑥ |⑤---|
⑤口口口 |⑥---|
47
口口口口 |----|
口口口口 |----|
口口口口 |----|
口口口口 |----|
48
②①②① |①-②-|
④③④③ |③-④-|
口⑧口⑥ |⑤-⑥⑦|
⑤⑨口⑦ |-⑧⑨-|
49
①口口③ |①-②-|
⑤④②⑤ |③-④-|
口⑥⑥口 |⑤-⑥⑦|
⑧⑦⑦口 |--⑧-|
50
④⑦⑦① |①-②③|
⑥口口⑥ |-④-⑤|
③⑤⑤② |-⑥-⑦|
⑧口口口 |--⑧-|
51
①口口③ |①-②-|
口④④口 |③-④-|
口④④口
口口口②

口口口口
口口口口
口口口口 |⑤---|
⑤口口⑥ |⑥---|
52
②①②① |①-②-|
④③④③ |③-④-|
⑥口口口 |⑤⑥-⑦|
⑤⑧口⑦ |--⑧-|
53
①口口③ |①-②-|
⑤④②⑤ |③-④-|
口⑥⑥口 |⑤-⑥⑦|
⑧⑦⑦口 |--⑧-|
54
④⑦⑦① |①-②③|
⑥口口⑥ |-④-⑤|
③⑤⑤② |-⑥-⑦|
⑧口口口 |--⑧-|
55
①口口③ |①-②-|
⑦④④口 |③-④-|
口④④⑥ |⑤--⑥|
⑤口口② |--⑦-|
56
口口口口 |①-②-|
口口④口 |③-④-|
口口③口
口①口②

⑧⑧口⑤
口口口口
口口口⑥ |⑤-⑥⑦|
口口口⑦ |--⑧-|
57
口口口口 |①-②-|
口④口口 |③-④-|
口③口口
②口①口

⑤口⑧⑧
口口口口
⑥口口口 |⑤-⑥⑦|
⑦口口口 |--⑧-|
58
口口口口 |①-②-|
口口④口 |③-④-|
口口③口
口①口②

口⑧口⑤
口口口口
口口⑧口 |⑤-⑥⑦|
口⑦⑥口 |--⑧-|
59
②口①③ |①-②-|
口④④口 |③-④-|
③①口②
口口口口

口口口口
口口口口
口口口⑥ |⑤---|
⑤口口口 |⑥---|
60
口口口口 |①-②-|
口口④口 |③-④-|
口口③口
口①口②

⑧⑧口⑤
口口口口
口口口⑥ |⑤-⑥⑦|
口口口⑦ |--⑧-|
61
口口口口 |①-②-|
口④口口 |③-④-|
口③口口
②口①口

⑤口⑧⑧
口口口口
⑥口口口 |⑤-⑥⑦|
⑦口口口 |--⑧-|
62
口口口口 |①-②-|
口口④口 |③-④-|
口口③口
口①口②

口⑧口⑤
口口口口
口口⑧口 |⑤-⑥⑦|
口⑦⑥口 |--⑧-|
63
②口①③ |①-②-|
口④④口 |③-④-|
③①口② |----|
口口口口 |----|
64
口口口口 |①---|
①①①① |----|
口①①口 |----|
口口口口 |----|


不確定度: 0

最終更新:2013年03月27日 18:39