ハッピーシンセサイザ
EasyPop

EXTREME

Level: 9
BPM: 127
Notes: 822

1
口口口口 |----|
口口口口 |----|
口口口口 |----|
口口口口 |----|
2
口⑨口⑧ |①-②-③-|
④⑪②⑩ |④-⑤-⑥-|
⑦⑥⑤口 |⑦---|
③口①口 |⑧⑨⑩⑪|
3
⑥⑦口⑧ |①-②-|
口口口⑨ |③-④-|
口③⑤① |⑤-⑥⑦|
口④口② |-⑧⑨-|
4
口口口口 |①-②-|
①④口口 |③-④-|
口口口口
②③口口

口口口口
口口⑤口
口口口口 |⑤-⑥⑦|
口⑧⑥⑦ |--⑧-|
5
④①口③ |①-②③|
口口口② |-④-⑤|
⑤⑤口口
⑤⑤口口

⑧⑥⑦口
口⑥口⑦
口口口口 |-⑥-⑦|
口口口⑧ |--⑧-|
6
口口口① |①-②-|
口②④口 |③-④-|
③口口③
①④②口

口⑪⑪口
⑩口口⑨
口⑧⑦口 |⑤⑥⑦⑧|
⑥口口⑤ |⑨⑩⑪-|
7
口口口口 |①-②-|
口口口口 |③-④-|
①③口①
④②③口

⑧⑩⑨⑦
⑤⑥⑥⑩
口⑨⑦口 |⑤-⑥⑦|
口口口⑤ |⑧⑨⑩-|
8
口口口口 |①-②-|
口口口口 |③-④-|
①口③①
口③②④

⑥⑨⑩⑧
⑩⑦⑦⑤
口⑥⑨口 |⑤-⑥⑦|
⑤口口口 |⑧⑨⑩-|
9
口口口口 |①-②-|
口口口口 |③-④-|
①③口①
④②③口

⑧⑩⑨⑦
⑤⑥⑥⑩
口⑨⑦口 |⑤-⑥⑦|
口口口⑤ |⑧⑨⑩-|
10
口口口口 |①-②-|
口口口口 |③-④-|
①口③①
口③②④

⑥⑨⑩⑧
⑩⑦⑦⑤
口⑥⑨口 |⑤-⑥⑦|
⑤口口口 |⑧⑨⑩-|
11
口口口口 |①-②-|
口口口口 |③-④-|
①③口①
④②③口

⑧⑩⑨⑦
⑤⑥⑥⑩
口⑨⑦口 |⑤-⑥⑦|
口口口⑤ |⑧⑨⑩-|
12
口口口口 |①-②-|
口口口口 |③-④-|
①口③①
口③②④

⑥⑨⑩⑧
⑩⑦⑦⑤
口⑥⑨口 |⑤-⑥⑦|
⑤口口口 |⑧⑨⑩-|
13
口口口口 |①-②-|
口口口口 |③-④-|
①③口①
④②③口

⑧⑩⑨⑦
⑤⑥⑥⑩
口⑨⑦口 |⑤-⑥⑦|
口口口⑤ |⑧⑨⑩-|
14
口口口口 |①-②-|
③口口口 |③-④⑤|
①⑤③①
口口②④

⑦⑩⑨口
⑪⑧⑥口
口口口口 |⑥-⑦⑧|
⑥口⑧口 |⑨⑩⑪-|
15
口口口口 |①-②-|
口口③② |③-④-|
口口④①
口口口口

口口口⑦
口⑧口⑦
口口口口 |⑤⑥-⑦|
⑤⑥口口 |--⑧-|
16
口①口口 |①-②-|
②⑦口⑦ |③-④-|
④⑤⑥⑤ |⑤⑥-⑦|
③口⑥口 |----|
17
口口口口 |①-②-|
②③口口 |③-④⑤|
①④口口
口口⑤口

⑧口口口
⑧口口口
口口⑨⑦ |⑥⑦-⑧|
口口口⑥ |--⑨-|
18
口口①口 |①-②③|
口口口口 |-④⑤-|
口②口④
口③口⑤

⑥⑧口口
⑨⑦口口
口⑩⑫口 |⑥⑦⑧⑨|
口⑬⑪口 |⑩⑪⑫⑬|
19
口口口口 |①-②-|
口口③② |③-④-|
口④口①
口口口口

口口口⑦
口⑧口⑦
口口口口 |⑤⑥-⑦|
⑤⑥口口 |--⑧-|
20
①④②口 |①-②-|
③口③口 |③-④-|
②④①口
口口口口

口口⑦⑦
口口口口
口口口⑥ |⑤⑥-⑦|
口口口⑤ |----|
21
口口口口 |①-②-|
②③口口 |③-④⑤|
①④口口
口口⑤口

⑧口口口
⑧⑨口口
口口口⑦ |⑥⑦-⑧|
口口口⑥ |--⑨-|
22
④口口口 |①-②③|
⑤口①口 |-④⑤-|
②口口③
口②③口

口口⑧⑥
口口⑦⑨
口⑫⑩口 |⑥⑦⑧⑨|
口⑪⑬口 |⑩⑪⑫⑬|
23
②口④口 |①②-③|
①口③口 |④-⑤⑥|
口口口口
⑥⑤口口

口⑧口⑧
口口⑩口
口口⑨⑦ |-⑦-⑧|
口口口⑦ |--⑨⑩|
24
口口①口 |①-②③|
②口口口 |-④-⑤|
③⑤口⑤
口④口④

⑦口⑦口
口⑥口⑥
口口口口 |-⑥-⑦|
口口口口 |----|
25
口③口口 |①②③④|
②口⑤口 |⑤-⑥⑦|
①口④口
⑦⑥口口

口⑨口⑨
口口⑪口
口口⑩⑧ |-⑧-⑨|
口口口⑧ |--⑩⑪|
26
口④①④ |①-②③|
②口口口 |-④-⑤|
③⑤口⑤ |----|
口口口口 |----|
27
口口③② |①②③-|
口口口① |④-⑤⑥|
口④口口
口口⑤⑥

⑧口⑧口
口⑩口口
⑦⑨口口 |-⑦-⑧|
口口口口 |--⑨⑩|
28
口①口口 |①-②③|
口口口② |-④⑤⑥|
口口口③
④⑤⑥口

口⑧口⑧
⑦口⑦口
口口口口 |-⑦-⑧|
口口口口 |----|
29
口口②口 |①-②-|
口口口口 |③-④⑤|
口③口①
口口④⑤

⑦口⑦口
口⑨口口
⑥⑧口口 |-⑥-⑦|
口口口口 |--⑧⑨|
30
④①④口 |①-②③|
⑤口⑤② |-④⑤⑥|
⑥口⑥③ |----|
口口口口 |----|
31
②①口⑥ |①-②-|
④③②① |③-④-|
⑧⑨④③ |⑤-⑥⑦|
⑤口口⑦ |-⑧⑨-|
32
口①口④ |①-②-|
②③③② |③-④-|
口口①口
④口口口

⑤口口口
口口口⑧
⑥⑦⑦⑥ |⑤-⑥⑦|
口⑦⑦⑤ |--⑧-|
33
④①口口 |①-②③|
①口③口 |-④-⑤|
⑤⑤口口
⑤⑤口②

⑧⑥⑦口
口⑥口⑦
口口口口 |-⑥-⑦|
口口口⑧ |--⑧-|
34
口②③① |①-②-|
口④口④ |③-④-|
④口④口
①③②口

⑤口口口
⑥口口口
⑫口口⑦ |⑤⑥⑦⑧|
⑨⑩⑪⑧ |⑨⑩⑪⑫|
35
②①口口 |①-②-|
④③②① |③-④-|
口口④③
口口口口

口口口口
口口口⑥
⑧⑨口口 |⑤⑥-⑦|
⑤口口⑦ |-⑧⑨-|
36
口①口④ |①-②-|
②③③② |③-④-|
口口①口
④口口口

⑤口口口
口口口⑧
⑥⑦⑦⑥ |⑤-⑥⑦|
口⑦⑦⑤ |--⑧-|
37
口①口口 |①-②③|
①⑤口口 |-④-⑤|
口口⑤③
④口口②

⑦口口口
⑧口口⑥
⑥口口口 |-⑥-⑦|
口口口⑦ |--⑧-|
38
口③④① |①-②-|
口③口④ |③-④-|
②②口口
②②口口

⑤口口口
⑥⑧⑧口
口⑦⑦口 |⑤⑥-⑦|
口口口口 |--⑧-|
39
口口口口 |①-②-|
④口口口 |③-④-|
③口口③
口②口①

口⑤⑩⑩
口口⑥口
口⑨⑦口 |⑤-⑥⑦|
口⑧⑤口 |⑧⑨⑩-|
40
口口口口 |①-②-|
口口口④ |③-④-|
③口口③
①口②口

⑩⑩⑤口
口⑥口口
口⑦⑨口 |⑤-⑥⑦|
口⑤⑧口 |⑧⑨⑩-|
41
口口口口 |①-②-|
口口口口 |③-④-|
②口口口
口③④①

口⑥口⑧
口口⑦口
口口口⑤ |⑤-⑥⑦|
⑤⑧口口 |--⑧-|
42
①③②口 |①-②-|
④口④口 |③-④-|
口④口④
②口①③

口⑪口⑤
口⑫口⑥
⑦口⑨口 |⑤⑥⑦⑧|
⑧口⑩口 |⑨⑩⑪⑫|
43
口口口口 |①-②-|
④口①口 |③-④-|
③口口③
口②口口

口⑤⑩⑩
口口⑥口
口⑨⑦口 |⑤-⑥⑦|
口⑧口⑤ |⑧⑨⑩-|
44
口口口口 |①-②-|
口口口④ |③-④-|
③口口③
①口②口

⑩⑩⑤口
口⑥口口
口⑦⑨口 |⑤-⑥⑦|
口⑤⑧口 |⑧⑨⑩-|
45
口口口口 |①-②-|
口口口口 |③-④-|
②口口口
口③④①

口⑥口⑧
口口⑦口
口口口⑤ |⑤-⑥⑦|
⑤⑧口口 |--⑧-|
46
①③②口 |①-②-|
④口④口 |③-④-|
口④口④ |----|
②口①③ |----|
47
口口⑥口 |①-②-|
①⑤③口 |③-④-|
⑧②⑦④ |⑤-⑥⑦|
⑨口口口 |-⑧⑨-|
48
②①口⑥ |①-②-|
④③②① |③-④-|
⑧⑨④③ |⑤-⑥⑦|
⑤口口⑦ |-⑧⑨-|
49
口①口④ |①-②-|
②③③② |③-④-|
口口①口
④口口口

⑤口口口
口口口⑧
⑥⑦⑦⑥ |⑤-⑥⑦|
口⑦⑦⑤ |--⑧-|
50
④①口口 |①-②③|
①口③口 |-④-⑤|
⑤⑤口口
⑤⑤口②

⑧⑥⑦口
口⑥口⑦
口口口口 |-⑥-⑦|
口口口⑧ |--⑧-|
51
口②③① |①-②-|
口④口④ |③-④-|
④口④口
①③②口

⑤口口口
⑥口口口
⑫口口⑦ |⑤⑥⑦⑧|
⑨⑩⑪⑧ |⑨⑩⑪⑫|
52
②①口口 |①-②-|
④③②① |③-④-|
口口④③
口口口口

口口口口
口口口⑥
口⑧口口 |⑤⑥-⑦|
⑤口口⑦ |--⑧-|
53
口①口④ |①-②-|
②③③② |③-④-|
口口①口
④口口口

⑤口口口
口口口⑧
⑥⑦⑦⑥ |⑤-⑥⑦|
口⑦⑦⑤ |--⑧-|
54
口①口口 |①-②③|
①⑤口口 |-④-⑤|
口口⑤③
④口口②

⑧口⑦口
口口口⑥
⑥口口口 |-⑥-⑦|
口⑦口⑧ |--⑧-|
55
口②③① |①-②-|
口④口④ |③-④-|
④口④口
①③②口

⑤口⑪口
⑥口⑫口
口⑨口⑦ |⑤⑥⑦⑧|
口⑩口⑧ |⑨⑩⑪⑫|
56
口⑤⑩⑩ |①-②-|
④口⑥口 |③-④-|
③⑨⑦③ |⑤-⑥⑦|
②⑧①⑤ |⑧⑨⑩-|
57
口口口口 |①-②-|
口口口④ |③-④-|
③口口③
①口②口

⑩⑩⑤口
口⑥口口
口⑦⑨口 |⑤-⑥⑦|
口⑤⑧口 |⑧⑨⑩-|
58
口口口口 |①-②-|
口口口口 |③-④-|
②口口口
口③④①

口⑥口⑧
口口⑦口
口口口⑤ |⑤-⑥⑦|
⑤⑧口口 |--⑧-|
59
①③②口 |①-②-|
④口④口 |③-④-|
口④口④
②口①③

口⑪口⑤
口⑫口⑥
⑦口⑨口 |⑤⑥⑦⑧|
⑧口⑩口 |⑨⑩⑪⑫|
60
口口口口 |①-②-|
④口①口 |③-④-|
③口口③
口②口口

口⑤⑩⑩
口口⑥口
口⑨⑦口 |⑤-⑥⑦|
口⑧口⑤ |⑧⑨⑩-|
61
口口口口 |①-②-|
口口口④ |③-④-|
③口口③
①口②口

⑩⑩⑤口
口⑥口口
口⑦⑨口 |⑤-⑥⑦|
口⑤⑧口 |⑧⑨⑩-|
62
口口口口 |①-②-|
口口口口 |③-④-|
②口口口
口③④①

口⑥口⑧
口口⑦口
口口口⑤ |⑤-⑥⑦|
⑤⑧口口 |--⑧-|
63
①③②口 |①-②-|
④口④口 |③-④-|
口④口④ |----|
②口①③ |----|
64
口①口① |①---|
口①①① |----|
口①口① |----|
口口口口 |----|


不確定度: 0

最終更新:2013年03月27日 18:02