カーニバる?
ナオト・インティライミ

BASIC

Level: 3
BPM: 69-165
Notes: 207

BPM: 69
1
口口口② |----|
①①口口 |----|
口口口口 |①---|
口口口口 |②---|
2
口口口口 |①---|
口口口② |②---|
①①口口
口口口口

口口口口
口口口口
口⑤⑥口 |③-④-|
口③④口 |⑤-⑥-|
3
口口口口 |①---|
口①口口 |----|
口口口口
口口口口

口口口③
②②口口
口口口口 |②---|
口口口口 |③---|
4
口口口口 |①-②-|
口口口口 |③---|
①②③口
口口口口

口口口口
口口口口
口⑤⑤口 |④---|
口④④口 |⑤---|

BPM: 165
5
口口口口 |①---|
①口口① |----|
口口口口 |----|
口口口口 |----|
6
口口口口 |----|
口口口口 |----|
口口口口 |----|
口口口口 |----|
7
①①口口 |①---|
口口②② |----|
口口口口 |②---|
口口口口 |----|
8
口口口口 |--①-|
口③③口 |--②-|
口①②口 |--③-|
口口口口 |----|
9
①口口① |①---|
口口口口 |----|
口口口口 |----|
口口口口 |----|
10
口口口口 |①---|
口③③口 |----|
①口口② |②---|
口口口口 |③---|
11
口①①口 |①---|
口口口口 |----|
口口口口 |----|
口口口口 |----|
12
口口口口 |①---|
③口口③ |----|
②口口② |②---|
口口①口 |③---|
13
①口口① |①---|
口口口口 |----|
口口口口 |----|
口口口口 |----|
14
口口口口 |①---|
口③③口 |----|
①口口② |②---|
口口口口 |③---|
15
口①①口 |①---|
口口口口 |----|
口口口口 |----|
口口口口 |----|
16
口口口口 |----|
口口口口 |----|
口口口口 |----|
口口口口 |----|
17
口口口口 |①---|
口口口口 |----|
②②口口 |②---|
口①口口 |----|
18
口口口口 |----|
口口口口 |----|
口口①① |①---|
口口口口 |----|
19
口口口口 |----|
口口口口 |----|
口①②口 |①---|
口口口口 |②---|
20
口③④口 |①---|
口①②口 |②---|
口口口口 |③---|
口口口口 |④---|
21
①口口口 |①---|
②③口口 |----|
口口口口 |②---|
口口口口 |③---|
22
口口口口 |①---|
口口①口 |----|
口口口② |②---|
口口口口 |----|
23
口口口口 |----|
口口口口 |①---|
①③②口 |②---|
口口口口 |③---|
24
口口口口 |①---|
口口口口 |----|
口口口① |----|
口口口口 |----|
25
口口口口 |①---|
口口口口 |----|
口口②② |②---|
口口①口 |----|
26
口口口口 |----|
口口口口 |----|
①①口口 |①---|
口口口口 |----|
27
口口口口 |----|
口口口口 |----|
口②①口 |①---|
口口口口 |②---|
28
口④③口 |①---|
口②①口 |②---|
口口口口 |③---|
口口口口 |④---|
29
口口口① |①---|
口口③② |----|
口口口口 |②---|
口口口口 |③---|
30
口口口口 |①---|
口①口口 |----|
②口口口 |②---|
口口口口 |----|
31
口口口口 |①---|
口口口口 |----|
②口口② |②---|
口①①口 |----|
32
②口口② |①---|
①口口① |----|
口口口口 |②---|
口口口口 |----|
33
口口口口 |①---|
口②②口 |----|
口①①口 |②---|
口口口口 |----|
34
②①①② |①---|
口口口口 |----|
口口口口 |②---|
口口口口 |----|
35
口口口口 |①---|
口口口口 |----|
①口口② |②---|
口口口口 |----|
36
口口口口 |①---|
①口口① |----|
口口口口 |----|
口口口口 |----|
37
口①②口 |①---|
口口口口 |----|
口口口口 |②---|
口口口口 |----|
38
口口口口 |①---|
口口口口 |②---|
口①②口 |③---|
口③口口 |----|
39
口口口口 |①---|
①②③④ |②---|
口口口口 |③---|
口口口口 |④---|
40
口口口口 |①---|
口口口口 |----|
口口口① |----|
口口口口 |----|
41
口②①口 |①---|
口口口口 |----|
口口口口 |②---|
口口口口 |----|
42
口口口口 |①---|
口口口口 |②---|
口②①口 |③---|
口口③口 |----|
43
口口口口 |①---|
④③②① |②---|
口口口口 |③---|
口口口口 |④---|
44
口口口口 |①---|
口口口口 |----|
①口口口 |----|
口口口口 |----|
45
口①②口 |①---|
口口口口 |----|
口口口口 |②---|
口口口口 |----|
46
口口口口 |①---|
口口口口 |②---|
口①②口 |③---|
口③口口 |----|
47
口口口口 |①---|
①②③④ |②---|
口口口口 |③---|
口口口口 |④---|
48
口口口口 |①---|
口口口口 |----|
口口口① |----|
口口口口 |----|
49
口②①口 |①---|
口口口口 |----|
口口口口 |②---|
口口口口 |----|
50
口口口口 |①---|
口口口口 |②---|
口②①口 |③---|
口④③口 |④---|
51
口口口口 |①---|
④③②① |②---|
口口口口 |③---|
口口口口 |④---|
52
①口口口 |①---|
口口口口 |----|
口口口口
口口口口

②口口②
口口口口
口口口口 |----|
口口口口 |②---|
53
口①②口 |①---|
口口口口 |----|
口口口口 |②---|
口口口口 |----|
54
口口口口 |①---|
口口口口 |②---|
口①②口 |③---|
口③口口 |----|
55
口口口口 |①---|
①②③④ |②---|
口口口口 |③---|
口口口口 |④---|
56
口口口口 |①---|
口口口口 |----|
口口口① |----|
口口口口 |----|
57
口②①口 |①---|
口口口口 |----|
口口口口 |②---|
口口口口 |----|
58
口口口口 |①---|
口口口口 |②---|
口②①口 |③---|
口口③口 |----|
59
口口口口 |①---|
④③②① |②---|
口口口口 |③---|
口口口口 |④---|
60
口口口口 |①---|
口口口口 |②---|
①②③④ |③---|
口口口口 |④---|
61
口①②口 |①---|
口口口口 |----|
口口口口 |②---|
口口口口 |----|
62
口口口口 |①---|
口口口口 |②---|
口①②口 |③---|
口③口口 |----|
63
口口口口 |①---|
①②③④ |②---|
口口口口 |③---|
口口口口 |④---|
64
口口口口 |①---|
③口口② |----|
口口口① |②---|
口口口口 |③---|
65
口②①口 |①---|
口口口口 |----|
口口口口 |②---|
口口口口 |----|
66
口口口口 |①---|
口口口口 |②---|
口②①口 |③---|
口口③口 |----|
67
口口口口 |①---|
④③②① |②---|
口口口口 |③---|
口口口口 |④---|
68
口口口口 |①---|
口口口口 |----|
口①①口 |②---|
口②②口 |----|
69
④口口④ |①---|
③口口③ |②---|
②口口② |③---|
①口口① |④---|


不确定度: 0

最終更新:2013年03月23日 20:50