勝って泣こうゼッ!
T-Pistonz+KMC

BASIC

Level: 3
BPM: 136
Notes: 235

BPM: 136.01
1
口口口口 |----|
口口口口 |----|
口口口口 |----|
口口口口 |----|
2
口口口口 |----|
口③③口 |①---|
口①②口 |②---|
口口口口 |--③-|
3
①②③口 |----|
口口口口 |①---|
口口口口 |②---|
口口口口 |③---|
4
口口口口 |①---|
④③②① |②---|
口口口口 |③---|
口口口口 |④---|
5
口口口口 |①---|
口口口口 |②---|
口①②③ |③---|
口口口④ |④---|

BPM: 146
6
口口口口 |----|
口口口口 |----|
口口口口
口口口口

BPM: 131
口口口口
口口口口
口口口口 |----|
口口口口 |----|

BPM: 135.11
7
④口口④ |①---|
口③③口 |②---|
口②②口 |③---|
口①①口 |④---|

BPM: 136.01
8
口①②口 |----|
口口口口 |①---|
口口口口 |②---|
口口口口 |----|
9
口口口口 |①---|
①②③④ |②---|
口口口口 |③---|
口口口口 |④---|
10
口口口口 |----|
口口口口 |①---|
口②①口 |②---|
口口口口 |----|
11
口口口口 |①---|
口口口口 |②---|
口口口口 |③---|
④③②① |④---|
12
口口口口 |----|
口口口口 |①---|
口口口口 |②---|
口①②口 |----|
13
口口口口 |①---|
口口口口 |②---|
①②③④ |③---|
口口口口 |④---|
14
口口口口 |----|
口②①口 |①---|
口口口口 |②---|
口口口口 |----|
15
④口口④ |①---|
③口口③ |②---|
口②②口 |③---|
口①①口 |④---|
16
口口口口 |----|
口口①① |①---|
口口口口 |----|
口口口口 |----|
17
口口口口 |----|
①①口口 |①---|
口口口口 |----|
口口口口 |----|
18
口口口口 |①---|
口口口口 |②---|
①③④② |③---|
口口口口 |④---|
19
口口口口 |①---|
口口口口 |----|
口口口口 |----|
口①①口 |----|
20
口口口口 |①---|
口口④② |②---|
口口③① |③---|
口口口口 |④---|
21
口口口口 |①---|
④②口口 |②---|
③①口口 |③---|
口口口口 |④---|
22
①②③口 |①---|
口口口口 |②---|
口口口口 |③---|
口口口口 |----|
23
口口口口 |①---|
口③②① |②---|
口口口口 |③---|
口口口口 |----|
24
口口口口 |①---|
④口口④ |②---|
③口口③ |③---|
口①②口 |④---|
25
口口口口 |①---|
口口口④ |②---|
口①②③ |③---|
口口口口 |④---|
26
口②②口 |①---|
③口①口 |②---|
口口口④ |③---|
口口口口 |④---|
27
口④④口 |①---|
口③③口 |②---|
口②②口 |③---|
口①①口 |④---|
28
①口口① |①---|
口口口口 |----|
②口口② |②---|
口口口口 |----|
29
口②②口 |①---|
①③③① |②---|
口④④口 |③---|
口口口口 |④---|
30
口口口口 |①---|
口口口口 |②---|
口口口口 |③---|
①②③④ |④---|
31
口口口口 |①---|
口口口口 |----|
口①①口 |----|
口口口口 |----|
32
①口口① |①---|
口口口口 |----|
口口口② |----|
口口口口 |②---|
33
口口口口 |①---|
④口口口 |②---|
③②①口 |③---|
口口口口 |④---|
34
口①①口 |①---|
②口口口 |----|
口口口口 |----|
口口口口 |②---|
35
口口口口 |①---|
口①②③ |②---|
口口口④ |③---|
口口口口 |④---|
36
口口口口 |----|
口口口口 |①---|
口③口口 |②---|
口①②口 |③---|
37
口口口口 |①---|
②口口口 |----|
口口①口 |②---|
口口口口 |----|
38
口口口口 |①---|
口口③① |----|
口②口口 |②---|
口口口口 |③---|
39
口①口口 |①---|
口口口口 |----|
口口口口 |----|
口口口口 |----|
40
①口口① |①---|
口口口口 |----|
口口口② |----|
口口口口 |②---|
41
口口口口 |①---|
④口口口 |②---|
③②①口 |③---|
口口口口 |④---|
42
口①①口 |①---|
②口口口 |----|
口口口口 |----|
口口口口 |②---|
43
口口口口 |①---|
口①②③ |②---|
口口口④ |③---|
口口口口 |④---|
44
口口口口 |----|
③口口③ |①---|
②口口② |②---|
①口口① |③---|
45
①口口① |①---|
口②②口 |----|
口口口口 |②---|
口口口口 |----|
46
口口口口 |①---|
口口口口 |----|
口①①口 |----|
口口口口 |----|
47
口口口口 |①---|
口口口口 |②---|
口③④口 |③---|
口①②口 |④---|

BPM: 136
48
②口口② |①---|
口①①口 |--②-|
口口口口 |----|
口口口口 |----|
49
口口口口 |①---|
口口口口 |②---|
②①③④ |③---|
口口口口 |④---|
50
②口口② |①---|
口①①口 |--②-|
口口口口 |----|
口口口口 |----|
51
口口口口 |①---|
口口口口 |②---|
④③①② |③---|
口口口口 |④---|
52
②口口② |①---|
口①①口 |--②-|
口口口口 |----|
口口口口 |----|
53
口口口口 |①---|
口口口口 |②---|
②①③④ |③---|
口口口口 |④---|
54
②口口② |①---|
口①①口 |--②-|
口口口口 |----|
口口口口 |----|
55
口口口口 |①---|
口口口口 |②---|
④口口① |③---|
口③②口 |④---|
56
②口口② |①---|
口①①口 |--②-|
口口口口 |----|
口口口口 |----|
57
口口口口 |①---|
口口口口 |②---|
②①③④ |③---|
口口口口 |④---|
58
②口口② |①---|
口①①口 |--②-|
口口口口 |----|
口口口口 |----|
59
口口口口 |①---|
口口口口 |②---|
④③①② |③---|
口口口口 |④---|
60
口口口口 |①---|
①②③口 |②---|
口口口口 |③---|
口口口口 |----|
61
口口口口 |①---|
口①口口 |②---|
口②口④ |③---|
口口③口 |④---|
62
口口口口 |①---|
口口口① |----|
口口口口 |----|
口口口口 |----|
63
口④口口 |①---|
口③口口 |②---|
口②口口 |③---|
口①口口 |④---|
64
口口口口 |----|
口口口口 |----|
口口口口 |----|
口口口口 |----|
65
⑤口口⑤ |①-②-|
口口口口 |③-④-|
①②③④ |----|
口口口口 |⑤---|


不确定度: 0

最終更新:2013年03月23日 20:49