HALLUCINATION
UZUMAKI

BASIC

Level: 3
BPM: 112
Notes: 185

1
口口口口 |----|
口口口口 |----|
口口口口 |----|
口口口口
2
①②③口 |①---|
口口口口 |②---|
口口口口 |③---|
口口口口
3
口口口口 |①---|
口③②① |②---|
口口口口 |③---|
口口口口
4
口口口口 |①---|
口口口口 |②---|
①②③口 |③---|
口口口口
5
口口口口 |①---|
口口口口 |②---|
口口口口 |③---|
口③②①
6
口口口口 |①---|
③口口口 |②---|
②口口口 |③---|
①口口口
7
口①口口 |①---|
口②口口 |②---|
口③口口 |③---|
口口口口
8
口口口口 |①---|
口口③口 |②---|
口口②口 |③---|
口口①口
9
口口口① |①---|
口口口② |②---|
口口口③ |③---|
口口口口
10
口口口口 |①---|
口口口口 |②---|
口口口口 |③---|
口③②①
11
口口口口 |①---|
口口口口 |②---|
①②③口 |③---|
口口口口
12
口口口口 |①---|
口③②① |②---|
口口口口 |③---|
口口口口
13
①②③口 |①---|
口口口口 |②---|
口口口口 |③---|
口口口口
14
口口口口 |①---|
口①①口 |----|
口口口口 |----|
口口口口
15
口口口口 |①---|
口口口口 |----|
①口口① |----|
口口口口
16
口口口口 |①---|
口口口口 |②---|
③口口③ |③---|
口①②口
17
口口口口 |①---|
③口口③ |②---|
口①②口 |③---|
口口口口
18
口②①口 |①---|
口口口口 |----|
口口口口 |②---|
口口口口
19
口口口口 |①---|
口①②口 |②---|
③口口③ |③---|
口口口口
20
口口口口 |①---|
口口口口 |②---|
口①②口 |③---|
③口口③
21
口口口口 |①---|
口口口口 |②---|
③口口③ |③---|
口①②口
22
口口口口 |①---|
口①②口 |----|
口口口口 |②---|
口口口口
23
口口②① |①---|
③③口口 |②---|
口口口口 |③---|
口口口口
24
①②口口 |①---|
口口③③ |②---|
口口口口 |③---|
口口口口
25
口口口口 |①---|
口口口口 |②---|
口口②① |③---|
③③口口
26
口口口口 |①---|
口②②口 |----|
口①①口 |②---|
口口口口
27
①②口口 |①---|
口口③③ |②---|
口口口口 |③---|
口口口口
28
口口②① |①---|
③③口口 |②---|
口口口口 |③---|
口口口口
29
口口口口 |①---|
口口口口 |②---|
①②口口 |③---|
口口③③
30
口口口口 |①---|
②口口② |----|
①口口① |②---|
口口口口
31
口口①口 |----|
口②口口 |①---|
口口口口 |②---|
口口口口
32
口口口口 |----|
口口口口 |①---|
口口①口 |②---|
口②口口
33
口口口口 |----|
口口口口 |①---|
①②口口 |②---|
口口口口
34
口口口口 |----|
口口口口 |①---|
口口②① |②---|
口口口口
35
口口口口 |----|
口①②口 |①---|
口口口口 |②---|
口口口口
36
口口口口 |----|
口口口口 |①---|
口①②口 |②---|
口口口口
37
口口口口 |----|
口口口口 |①---|
口口口口 |②---|
口①②口
38
口口口口 |----|
口口口口 |①---|
口口口② |②---|
口口口①
39
口口口口 |----|
口口口口 |①---|
②口口口 |②---|
①口口口
40
口②②口 |①---|
①③口口 |②---|
口口口口 |③---|
口口口口
41
口口口口 |①---|
口口①② |②---|
口口口③ |③---|
口口口口
42
口口口口 |①---|
口口口口 |②---|
③②①口 |③---|
口口口口
43
口口口口 |①---|
口口口口 |②---|
口口口口 |③---|
①②③口
44
口口口口 |----|
口口口口 |①---|
口①②口 |②---|
口口口口
45
口口口口 |①---|
口②②口 |----|
口口口① |②---|
口口口口
46
①①②② |①---|
口口口口 |----|
口口口口 |②---|
口口口口
47
口口口口 |①---|
口口口口 |②---|
口①②③ |③---|
口口口口
48
口口口口 |①---|
②口口② |----|
口口口口 |②---|
口①①口
49
口口口口 |----|
口口口口 |①---|
口①②口 |②---|
口口口口
50
口口口口 |----|
口口口口 |①---|
口口口口 |②---|
①口口②
51
口口口口 |----|
口口口口 |①---|
②口口② |②---|
口①①口
52
口口口口 |----|
口口②① |①---|
口口口口 |②---|
口口口口
53
口口口口 |----|
①②口口 |①---|
口口口口 |②---|
口口口口
54
口①②口 |----|
口口口口 |①---|
口口口口 |②---|
口口口口
55
②口口② |①---|
①口口① |----|
口口口口 |②---|
口口口口
56
口口口口 |----|
口①②口 |①---|
口口口口 |②---|
口口口口
57
口口口口 |----|
口口口口 |①---|
①②口口 |②---|
口口口口
58
口口口口 |----|
口口口口 |①---|
口口②① |②---|
口口口口
59
口口口口 |①---|
口口口口 |----|
②口口② |②---|
口①①口
60
口口口口 |----|
口①②口 |①---|
口口口口 |②---|
口口口口
61
①②口口 |----|
口口口口 |①---|
口口口口 |②---|
口口口口
62
口口②① |----|
口口口口 |①---|
口口口口 |②---|
口口口口
63
口口口口 |①---|
口①①口 |----|
口②②口 |②---|
口口口口
64
口口口口 |①---|
①①①① |----|
口口口口 |----|
口口口口


不确定度: 0

最終更新:2013年03月23日 20:41