日進月歩
Jeepta

BASIC

Level: 4
BPM: 185
Notes: 193

1
口口口口 |----|
口口口口 |----|
口口口口 |----|
口口口口 |----|
2
口口口口 |①---|
口口口口 |----|
①②口口 |②---|
口口口口 |----|
3
口口口口 |①---|
口口口口 |----|
口口口口 |②---|
①②口口 |----|
4
口口口口 |①---|
口口口口 |----|
口口②① |②---|
口口口口 |----|
5
口口口口 |①---|
口口口口 |----|
口口口口 |②---|
口口②① |----|
6
口口口口 |①---|
②②口口 |----|
①①口口 |②---|
口口口口 |----|
7
口口口口 |①---|
口口②② |----|
口口①① |②---|
口口口口 |----|
8
口口口口 |①---|
②②口口 |----|
①①口口 |②---|
口口口口 |----|
9
口口口口 |①---|
口口②② |----|
口口①① |②---|
口口口口 |----|
10
口①口口 |①---|
口②口口 |----|
口口口口 |②---|
口口口口 |----|
11
口口口口 |①---|
口口口口 |----|
口口①口 |②---|
口口②口 |----|
12
口口①口 |①---|
口口②口 |----|
口口口口 |②---|
口口口口 |----|
13
口口口口 |①---|
口口口口 |----|
口①口口 |②---|
口②口口 |----|
14
口口口口 |①---|
①②口口 |----|
口口口口 |②---|
口口口口 |----|
15
口口口口 |①---|
口口口口 |----|
口口①② |②---|
口口口口 |----|
16
口口口口 |①---|
口口②① |----|
口口口口 |②---|
口口口口 |----|
17
口口口口 |①---|
口口口口 |----|
②①口口 |②---|
口口口口 |----|
18
口①口口 |①---|
口②口口 |----|
口口口口 |②---|
口口口口 |----|
19
口口口口 |①---|
口口口口 |----|
口口①口 |②---|
口口②口 |----|
20
口口①口 |①---|
口口②口 |----|
口口口口 |②---|
口口口口 |----|
21
口口口口 |①---|
口口口口 |----|
口①口口 |②---|
口②口口 |----|
22
口口口口 |①---|
①②口口 |----|
口口口口 |②---|
口口口口 |----|
23
口口口口 |①---|
口口口口 |----|
口口①② |②---|
口口口口 |----|
24
口口口口 |①---|
口口②① |----|
口口口口 |②---|
口口口口 |----|
25
口口口口 |①---|
口口口口 |----|
②①口口 |②---|
口口口口 |----|
26
口口口口 |①---|
口口口口 |----|
口①口口 |②---|
口②口口 |----|
27
口口口口 |①---|
口口口口 |----|
口口①口 |②---|
口口②口 |----|
28
口口口口 |①---|
口①①口 |----|
口口口口 |----|
口口口口 |----|
29
口口口口 |①---|
口口口口 |----|
口①①口 |----|
口口口口 |----|
30
口①口口 |①---|
口②口口 |----|
口口口口 |②---|
口口口口 |----|
31
口口①口 |①---|
口口②口 |----|
口口口口 |②---|
口口口口 |----|
32
口口口口 |①---|
口口口口 |----|
口口口口 |----|
口①①口 |----|
33
口口口口 |①---|
口①①口 |----|
口口口口 |----|
口口口口 |----|
34
口口口口 |①---|
口口口口 |----|
①②口口 |②---|
口口口口 |----|
35
口口口口 |①---|
口口口口 |----|
口口②① |②---|
口口口口 |----|
36
口①①口 |①---|
口口口口 |----|
口口口口 |----|
口口口口 |----|
37
①口口① |①---|
口口口口 |----|
口口口口 |----|
口口口口 |----|
38
口口口口 |①---|
口口口口 |----|
口口②① |②---|
口口口口 |----|
39
口口口口 |①---|
口口口口 |----|
①②口口 |②---|
口口口口 |----|
40
口口口口 |①---|
口①①口 |----|
口口口口 |----|
口口口口 |----|
41
口口口口 |①---|
①口口① |----|
口口口口 |----|
口口口口 |----|
42
口①口② |①---|
口口口口 |----|
口口口口 |②---|
口口口口 |----|
43
口口口口 |①---|
口①口② |----|
口口口口 |②---|
口口口口 |----|
44
口口口口 |①---|
口口口口 |----|
①①口口 |----|
口口口口 |----|
45
口口口口 |①---|
口口口口 |----|
口口口口 |----|
①①口口 |----|
46
①口②口 |①---|
口口口口 |----|
口口口口 |②---|
口口口口 |----|
47
口口口口 |①---|
①口②口 |----|
口口口口 |②---|
口口口口 |----|
48
口口口口 |①---|
口口口口 |----|
口口口口 |----|
口①①口 |----|
49
口③④口 |①---|
口①②口 |②---|
口口口口 |③---|
口口口口 |④---|
50
口口口口 |----|
口口口口 |----|
口口口口 |①---|
口①①口 |----|
51
①①口口 |①---|
②②口口 |----|
口口口口 |②---|
口口口口 |----|
52
口口口口 |①---|
口口①① |----|
口口②② |②---|
口口口口 |----|
53
口口①① |①---|
口口②② |----|
口口口口 |②---|
口口口口 |----|
54
口口口口 |①---|
①①口口 |----|
②②口口 |②---|
口口口口 |----|
55
口①①口 |①---|
口②②口 |----|
口口口口 |②---|
口口口口 |----|
56
口口口口 |①---|
口口口口 |----|
口①①口 |②---|
口②②口 |----|
57
口口口口 |①---|
口口口口 |----|
口口口口 |----|
①口口① |----|
58
①口口① |①---|
口口口口 |----|
口口口口 |----|
口口口口 |----|
59
①①口口 |①---|
②②口口 |----|
口口口口 |②---|
口口口口 |----|
60
口口口口 |①---|
口口①① |----|
口口②② |②---|
口口口口 |----|
61
口口①① |①---|
口口②② |----|
口口口口 |②---|
口口口口 |----|
62
口口口口 |①---|
①①口口 |----|
②②口口 |②---|
口口口口 |----|
63
口①①口 |①---|
口②②口 |----|
口口口口 |②---|
口口口口 |----|
64
口口口口 |①---|
口口口口 |----|
口①①口 |②---|
口②②口 |----|
65
口口口口 |①---|
口口口口 |----|
口②口口 |----|
①口口① |--②-|
66
口③口口 |--①-|
②①④口 |--②-|
口口口口 |--③-|
口口口口 |--④-|
67
口口口口 |----|
口口口口 |----|
口口口口 |----|
口口口口 |----|
68
口口口口 |①---|
口口口口 |----|
口口①口 |②---|
口口②口 |----|
69
口口①口 |①---|
口口②口 |----|
口口口口 |②---|
口口口口 |----|
70
口口口口 |①---|
口口口口 |----|
口①口口 |②---|
口②口口 |----|
71
口口口口 |①---|
①②口口 |----|
口口口口 |②---|
口口口口 |----|
72
口口口口 |①---|
口口口口 |----|
口口①② |②---|
口口口口 |----|
73
口口口口 |①---|
口口②① |----|
口口口口 |②---|
口口口口 |----|
74
口口口口 |①---|
③③④④ |②---|
①①②② |③---|
口口口口 |④---|
75
口口口口 |①---|
②②②② |----|
口口口口 |----|
①口口① |--②-|


不确定度: 0

最終更新:2013年03月23日 20:39