日進月歩
Jeepta

ADVANCED

Level: 7
BPM: 185
Notes: 481

1
口口口口 |----|
口口口口 |----|
口口口口 |----|
口口口口 |----|
2
①口口③ |①---|
口口口口 |②---|
口口口口 |③---|
④口口② |④---|
3
①口口③ |①---|
口口口口 |②---|
口口口口 |③---|
④口口② |④---|
4
口口口口 |①---|
①口口③ |②---|
④口口② |③---|
口口口口 |④---|
5
口口口口 |①---|
口①③口 |②---|
口④②口 |③---|
口口口口 |④---|
6
①①③③ |①---|
口口口口 |②---|
口口口口 |③---|
④口口② |④---|
7
①①③③ |①---|
口口口口 |②---|
口口口口 |③---|
④口口② |④---|
8
口口口口 |①---|
①①③③ |②---|
④口口② |③---|
口口口口 |④---|
9
口①③口 |①---|
口①③口 |②---|
④口口② |③---|
口口口口 |④---|
10
口③口② |①-②-|
口⑤口④ |③-④-|
口⑦口⑥ |⑤-⑥-|
口①口⑧ |⑦-⑧-|
11
口口②② |①-②-|
口口口口 |--③-|
③口③口 |④---|
④①④口 |----|
12
口②口③ |①-②-|
口④口⑤ |③-④-|
⑥口⑦口 |⑤-⑥-|
⑧口口① |⑦-⑧-|
13
②②口口 |①-②-|
口口口口 |--③-|
口③口③ |④---|
口④①④ |----|
14
口③口② |①-②-|
口⑤口④ |③-④-|
①⑦口⑥ |⑤-⑥-|
口口口⑧ |⑦-⑧-|
15
口口②② |①-②-|
口口口口 |--③-|
③口③口 |④---|
④①④口 |----|
16
口②口③ |①-②-|
口④口⑤ |③-④-|
⑥口⑦口 |⑤-⑥-|
⑧口口① |⑦-⑧-|
17
②②口口 |①-②-|
口口口口 |--③-|
口③口③ |④---|
口④①④ |----|
18
口③口② |①-②-|
口⑤口④ |③-④-|
①⑦口⑥ |⑤-⑥-|
口口口⑧ |⑦-⑧-|
19
口口②② |①-②-|
③口③口 |--③-|
口口口口 |④---|
④①④口 |----|
20
口②口③ |①-②-|
口④口⑤ |③-④-|
⑥口⑦口 |⑤-⑥-|
⑧口口① |⑦-⑧-|
21
②②口口 |①-②-|
口③口③ |--③-|
口口口口 |④---|
口④①④ |----|
22
口③口② |①-②-|
口⑤口④ |③-④-|
①⑦口⑥ |⑤-⑥-|
口口口⑧ |⑦-⑧-|
23
口口②② |①-②-|
③口④口 |--③-|
口口口口 |④---|
④①③口 |----|
24
口②口③ |①-②-|
口④口⑤ |③-④-|
⑥口⑦口 |⑤-⑥-|
⑧口口① |⑦-⑧-|
25
②②口口 |①-②-|
口④口③ |--③-|
口口口口 |④---|
口③①④ |----|
26
①口口⑤ |----|
口口口口 |①---|
口④③② |②-③-|
口口口口 |④-⑤-|
27
口④④口 |--①-|
③②②③ |--②-|
口口口口 |--③-|
①口口口 |--④-|
28
口口口口 |--①-|
口口口口 |----|
口①①口 |----|
②③口口 |②-③-|
29
口口口口 |--①-|
口口口口 |----|
口口口口 |--②-|
口③②① |③---|
30
①③口⑤ |----|
口②④口 |①-②-|
口口口⑥ |③-④-|
口口口口 |⑤-⑥-|
31
口⑤⑤口 |①-②-|
①④④② |--③-|
口③③口 |--④-|
口口口口 |--⑤-|
32
口口口口 |--①-|
口口口口 |----|
①口口① |----|
②③口口 |②-③-|
33
口口口口 |--①-|
口口口口 |----|
口口口口 |--②-|
口③②① |③---|
34
①口口⑤ |----|
口口口口 |①---|
口④③② |②-③-|
口口口口 |④-⑤-|
35
口④④口 |--①-|
③②②③ |--②-|
口口口口 |--③-|
①口口口 |--④-|
36
口口口口 |--①-|
口口口口 |----|
口①①口 |----|
②③口口 |②-③-|
37
口口口口 |--①-|
口口口口 |----|
口口口口 |--②-|
口③②① |③---|
38
①③口⑤ |----|
⑥②④口 |①-②-|
口口口口 |③-④-|
口口口口 |⑤-⑥-|
39
口④④口 |--①-|
口③③口 |--②-|
口②②口 |--③-|
口口口① |--④-|
40
口口口口 |--①-|
口口口口 |----|
①口口① |----|
②③口口 |②-③-|
41
口④口口 |--①-|
口口口口 |----|
口③口② |--②-|
口口口① |③-④-|
42
③口④① |①-②-|
⑥口⑤② |--③-|
口口口口 |④-⑤-|
口口口口 |--⑥-|
43
③口④① |①-②-|
口口⑤② |--③-|
⑥口口⑥ |④-⑤-|
口口口口 |--⑥-|
44
口口口口 |--①-|
口口口口 |----|
②口口口 |----|
①口口① |--②-|
45
口口③口 |①-②-|
⑦口口口 |--③-|
口①②口 |④-⑤-|
⑥口⑤④ |⑥-⑦-|
46
①①④④ |①--②|
⑤⑤②② |--③-|
③③⑥⑥ |④--⑤|
口口口口 |--⑥-|
47
①①④④ |①--②|
口口②② |--③-|
③③口口 |④--⑤|
⑥⑤⑤⑥ |--⑥-|
48
口口口口 |--①-|
①①①① |----|
口口口口 |----|
口口口口 |----|
49
口④④口 |①---|
①口口③ |②---|
①口口③ |③---|
口②②口 |④---|
50
口口口口 |----|
口口口口 |----|
②口③口 |①---|
口口口① |②-③-|
51
①①①口 |①---|
口口口口 |②---|
口②口② |----|
③口口口 |③---|
52
口口口① |①---|
口口口口 |②-③-|
口口口口
口②③口

⑤口口⑤
口④④口
口口口口 |--④-|
口口口口 |--⑤-|
53
口口口口 |----|
②口口② |①---|
口③③口 |②---|
口①①口 |③---|
54
口①①口 |①---|
④口口④ |②-③-|
④口口④ |--④-|
口②③口 |----|
55
①①③③ |①---|
口口口口 |②---|
口口口口 |③---|
②口口④ |④---|
56
口口口口 |①---|
口①①口 |②-③-|
口口口口
口②③口

口口口口
④⑤口④
口口口口 |--④-|
口口口口 |--⑤-|
57
⑤⑤⑤⑤ |①-②-|
口口口口 |----|
口口①口 |③-④-|
④②口③ |--⑤-|
58
口口口口 |----|
口口口口 |----|
口口③口 |①---|
①口②口 |②-③-|
59
①口①口 |①---|
③口③口 |②---|
口②口② |③---|
口④口④ |④---|
60
口口口① |①---|
口口口口 |②-③-|
口②③口
口口口口

⑤口口⑤
④口口④
口口口口 |--④-|
口口口口 |--⑤-|
61
口口口口 |----|
②口口② |①---|
口③③口 |②---|
口①①口 |③---|
62
口①①口 |①---|
④口口④ |②-③-|
④口口④ |--④-|
口②③口 |----|
63
①①③③ |①---|
口口口口 |②---|
口口口口 |③---|
②口口④ |④---|
64
口口口口 |①---|
口①①口 |②-③-|
口口口口
口②③口

口口口口
④⑤口④
口口口口 |--④-|
口口口口 |--⑤-|
65
口口②口 |①-②-|
口口口口 |--③-|
③口①口
口口口口

口口口口
口⑥口口
口口⑥④ |④-⑤-|
口⑤口⑥ |--⑥-|
66
④③②① |--①-|
③口口口 |--②-|
②口口口 |--③-|
①口口口 |--④-|
67
口口口② |①-②-|
口⑤口④ |③-④-|
③⑦口⑥ |⑤-⑥-|
①口口⑧ |⑦-⑧-|
68
口口②② |①-②-|
③口③口 |--③-|
口口口口 |④---|
④①④口 |----|
69
口②口③ |①-②-|
口④口⑤ |③-④-|
⑥口⑦口 |⑤-⑥-|
⑧口口① |⑦-⑧-|
70
②②口口 |①-②-|
口③口③ |--③-|
口口口口 |④---|
口④①④ |----|
71
口③口② |①-②-|
口⑤口④ |③-④-|
①⑦口⑥ |⑤-⑥-|
口口口⑧ |⑦-⑧-|
72
口口②② |①-②-|
③口④口 |--③-|
口口口口 |④---|
④①③口 |----|
73
口②口③ |①-②-|
口④口⑤ |③-④-|
⑥口⑦口 |⑤-⑥-|
⑧口口① |⑦-⑧-|
74
②②口口 |①---|
口口③③ |②---|
④④口口 |③---|
口口①① |④---|
75
口⑧⑧口 |①-②-|
③⑤⑥④ |③-④-|
口口口口 |⑤-⑥-|
⑦①②⑦ |⑦-⑧-|


不确定度: 0

最終更新:2013年03月23日 20:39