The Wind of Gold
kors k

ADVANCED

Level: 8
BPM: 170
Notes: 631

1
口口口口 |----|
口口口口 |----|
口口口口 |----|
口口口口 |----|
2
口口口③ |①-②-|
口口口口 |--③-|
②口口④ |----|
口口①① |④---|
3
口口口③ |①-②-|
口口口口 |--③-|
②口口口 |----|
口口①口 |----|
4
口口口③ |①-②-|
口口口口 |--③-|
②口口口 |----|
口口①口 |----|
5
口口口口 |----|
口口口口 |----|
口口口口 |----|
口口口口 |----|
6
口口口③ |①-②-|
口口口口 |--③-|
②口口④ |----|
口口①口 |④---|
7
口口口③ |①-②-|
口口口口 |--③-|
②口口口 |----|
口口①口 |----|
8
⑨①②⑩ |①②③④|
⑪③④⑫ |⑤⑥⑦⑧|
⑬⑤⑥⑭ |⑨⑩⑪⑫|
⑮⑦⑧⑯ |⑬⑭⑮⑯|
9
口⑩⑩口 |①②③④|
口①②口 |⑤---|
⑥③④⑦ |⑥⑦⑧⑨|
⑧⑤口⑨ |⑩---|
10
①④④口 |①--②|
②①口口 |--③-|
③②口口 |--④-|
口③口口 |----|
11
口口口① |①--②|
口口①② |--③-|
口口②③
口口③口

⑤口口⑤
口口口口
口口口口 |-④--|
④口口④ |⑤---|
12
口口②口 |①--②|
①③口② |--③-|
③①口口
口口口口

口口口口
口口口口
口⑤口④ |-④--|
⑤口④口 |⑤---|
13
口②口口 |①--②|
②口③① |--③-|
口口①③
口口口口

口口口口
口口口口
④口⑤口 |-④--|
口④口⑤ |⑤---|
14
①④④口 |①--②|
②①口口 |--③-|
③②口口 |--④-|
口③口口 |----|
15
口口口① |①--②|
口口①② |--③-|
口口②③
口口③口

⑤口口⑤
口口口口
口口口口 |-④--|
④口口④ |⑤---|
16
口③③口 |①--②|
④口口② |--③-|
①④②口 |-④--|
⑤①口⑤ |⑤---|
17
口④④⑥ |①---|
口口⑥口 |--②③|
①②③① |④--⑤|
⑤①①⑤ |--⑥-|
18
①④④口 |①--②|
②①口口 |--③-|
③②口口 |--④-|
口③口口 |----|
19
口口口① |①--②|
口口①② |--③-|
口口②③
口口③口

⑤口口⑤
口口口口
口口口口 |-④--|
④口口④ |⑤---|
20
口口②口 |①--②|
①③口② |--③-|
③①口口
口口口口

口口口口
口口口口
口⑤口④ |-④--|
⑤口④口 |⑤---|
21
口②口口 |①--②|
②口③① |--③-|
口口①③
口口口口

口口口口
口口口口
④口⑤口 |-④--|
口④口⑤ |⑤---|
22
④①①④ |①--②|
口口口口 |--③-|
口③口③ |--④-|
②口②口 |----|
23
⑤①①⑤ |①--②|
口口口口 |--③-|
③口③口 |-④--|
④②④② |⑤---|
24
口③③口 |①--②|
⑤④⑤④ |--③-|
②口②口 |-④--|
口①口① |⑤---|
25
口③③口 |①--②|
口口口口 |--③-|
口②口②
①口①口

④口口④
口口口口
口口口口 |-④--|
口⑤⑤口 |⑤---|
26
口口口口 |①---|
口①①口 |----|
口①①口 |----|
口口口口 |----|
27
口口口口 |----|
口口口口 |----|
口口口口 |----|
口口口口 |----|
28
口口口① |①---|
②口口① |②-③-|
②口③口 |----|
口口③口 |----|
29
⑤口④⑤ |--①-|
③口口口 |②-③-|
口口口② |④---|
口①口口 |⑤---|
30
口口口口 |①---|
口口口口 |----|
口口口口 |----|
①口口① |----|
31
口口口口 |----|
口口口口 |----|
口口口口 |----|
口口口口 |----|
32
③口口口 |①---|
③口口② |②-③-|
口①口② |----|
口①口口 |----|
33
②口口② |----|
口口口口 |--①-|
口口口口 |--②-|
口①①口 |----|
34
口口口口 |①---|
口①①口 |----|
口①①口 |----|
口口口口 |----|
35
②口口② |----|
口口口口 |--①-|
口③③口 |--②-|
口①①口 |--③-|
36
口口口口 |----|
口口口口 |----|
口口口口 |----|
口口口口 |----|
37
②口口② |----|
口口口口 |--①-|
口③③口 |--②-|
口①①口 |--③-|
38
③口口④ |①---|
①①口⑤ |②--③|
口⑥⑦口 |-④--|
口口②② |⑤-⑥⑦|
39
口口口口 |①---|
口①口口 |②--③|
口口口③
②②口口

⑥④⑤⑥
口⑦⑦口
口口口口 |-④⑤-|
口口口口 |⑥-⑦-|
40
⑥⑤⑤⑥ |①---|
③口口③ |②--③|
④①①④ |-④--|
②口口② |⑤-⑥-|
41
口⑩⑩口 |①②③④|
口①②口 |⑤---|
⑥③④⑦ |⑥⑦⑧⑨|
⑧⑤口⑨ |⑩---|
42
①⑤⑤口 |①---|
口①口② |②--③|
④口②④ |-④--|
⑥③③⑥ |⑤-⑥-|
43
①口口口 |①---|
口①口② |②--③|
口口②口
口③③口

⑥口口⑥
口口口口
④口口④ |-④--|
⑤口口⑤ |⑤-⑥-|
44
口口口口 |①---|
①⑥⑥② |②--③|
③①②③ |-④--|
⑤④④⑤ |⑤-⑥-|
45
口①①口 |--①-|
口口口口 |-②--|
口②②口
口口口口

口⑥⑥口
口口口口
④口口④ |③-④-|
⑤③③⑤ |⑤-⑥-|
46
①口口口 |①---|
口①口② |②--③|
口口②口
口③③口

⑤口口⑤
口口⑦口
④⑥口④ |-④--|
口口口口 |⑤-⑥⑦|
47
口①口口 |①---|
口口口③ |②--③|
口口口口
口②②口

口⑥⑥口
口⑦⑦口
④口口⑤ |-④⑤-|
口口口口 |⑥-⑦-|
48
口口口口 |①---|
③口口③ |②--③|
口①①口
②口口②

⑥口口⑥
口口口口
④⑤⑤④ |-④--|
口口口口 |⑤-⑥-|
49
口④⑦⑦ |--①-|
④口⑤③ |②-③-|
⑥⑥口⑤ |④-⑤-|
②②①① |⑥-⑦-|
50
①⑤⑤口 |①---|
口①口② |②--③|
④口②④ |-④--|
⑥③③⑥ |⑤-⑥-|
51
①口口口 |①---|
口①口② |②--③|
口口②口
口③③口

⑥口口⑥
口口口口
④口口④ |-④--|
⑤口口⑤ |⑤-⑥-|
52
口口口口 |①---|
①⑥⑥② |②--③|
③①②③ |-④--|
⑤④④⑤ |⑤-⑥-|
53
口①①口 |--①-|
口口口口 |-②--|
口②②口
口口口口

口⑥⑥口
口口口口
④口口④ |③-④-|
⑤③③⑤ |⑤-⑥-|
54
①口口口 |①---|
口①口② |②--③|
口口②口
口③③口

⑤口口⑤
口口⑦口
④⑥口④ |-④--|
口口口口 |⑤-⑥⑦|
55
口①口口 |①---|
口口口③ |②--③|
口口口口
口②②口

口⑥⑥口
口⑦⑦口
④口口⑤ |-④⑤-|
口口口口 |⑥-⑦-|
56
口口口口 |①---|
③口口③ |②--③|
口①①口
②口口②

口口⑥口
口⑥口口
④口⑤④ |-④--|
口⑤口口 |⑤-⑥-|
57
口①口④ |--①-|
口口口口 |②-③-|
⑤③口⑥ |④-⑤-|
⑦口②口 |⑥-⑦-|
58
①④④口 |①--②|
②①口口 |--③-|
③②口口 |--④-|
口③口口 |----|
59
口口口① |①--②|
口口①② |--③-|
口口②③
口口③口

⑤口口⑤
口口口口
口口口口 |-④--|
④口口④ |⑤---|
60
口口②口 |①--②|
①③口② |--③-|
③①口口
口口口口

口口口口
口口口口
口⑤口④ |-④--|
⑤口④口 |⑤---|
61
口②口口 |①--②|
②口③① |--③-|
口口①③
口口口口

口口口口
口口口口
④口⑤口 |-④--|
口④口⑤ |⑤---|
62
①④④口 |①--②|
②①口口 |--③-|
③②口口 |--④-|
口③口口 |----|
63
口口口① |①--②|
口口①② |--③-|
口口②③
口口③口

⑤口口⑤
口口口口
口口口口 |-④--|
④口口④ |⑤---|
64
口③③口 |①--②|
④口口② |--③-|
①④②口 |-④--|
⑤①口⑤ |⑤---|
65
④⑤⑤④ |①--②|
③②②③ |--③-|
口口口口 |-④--|
口①①口 |⑤---|
66
口④④口 |①---|
②口口② |②-③-|
③②②口 |--④-|
①③口① |----|
67
口口口① |①--②|
口口①② |--③-|
口口②③
口口③口

⑤口口⑤
口口口口
口口口口 |-④--|
④口口④ |⑤---|
68
口口②口 |①--②|
①③口② |--③-|
③①口口
口口口口

口口口口
口口口口
口⑤口④ |-④--|
⑤口④口 |⑤---|
69
口②口口 |①--②|
②口③① |--③-|
口口①③
口口口口

口口口口
口口口口
④口⑤口 |-④--|
⑥④⑥⑤ |⑤-⑥-|
70
⑤口口⑤ |--①②|
③①②③ |③-④-|
口④口④ |--⑤-|
口口口口 |----|
71
⑤①①⑤ |①--②|
口口口口 |--③-|
③口③口 |-④--|
④②④② |⑤---|
72
口③③口 |①--②|
⑤④⑤④ |--③-|
②口②口 |-④--|
口①口① |⑤---|
73
口③③口 |①--②|
口口口口 |--③-|
口②口②
①口①口

④口口④
口口口口
口口口口 |-④--|
口⑤⑤口 |⑤---|
74
口口口口 |①---|
①①①① |----|
口①①口 |----|
口口口口 |----|


不确定度: 0

最終更新:2012年11月07日 23:47