city talk
Half-Life

BASIC

Level: 3
BPM: 141
Notes: 188

1
口口口口 |----|
口口口口 |----|
口口口口 |----|
口口口口 |----|
2
口口④口 |①---|
口③口口 |----|
口①②口 |②--③|
口口口口 |--④-|
3
口口口口 |----|
口口口口 |----|
口口口口 |----|
口口口口 |----|
4
口⑤口口 |①---|
口口④口 |②---|
②③①口 |③--④|
口口口口 |--⑤-|
5
口口口口 |----|
口口口口 |----|
口口口口 |----|
口口口口 |----|
6
口口⑤口 |①---|
口④口口 |②---|
口①③② |③--④|
口口口口 |--⑤-|
7
口口口口 |----|
口口口口 |----|
口口口口 |----|
口口口口 |----|
8
口⑤口口 |①---|
口口④口 |②---|
②③①口 |③--④|
口口口口 |--⑤-|
9
口口口口 |----|
口口口口 |----|
口口口口 |----|
口口口口 |----|
10
口口口口 |①---|
②③①口 |②---|
口口④口 |③--④|
口⑤口口 |--⑤-|
11
口口口口 |----|
口口口口 |----|
口口口口 |----|
口口口口 |----|
12
口口口口 |①---|
口①③② |②---|
口④口口 |③--④|
口口⑤口 |--⑤-|
13
口口口口 |----|
口口口口 |----|
口口①① |①---|
口口口口 |----|
14
口口口口 |①---|
③②①① |----|
口口口口 |②---|
口口口口 |③---|
15
口口口口 |----|
口口口口 |①---|
口①②③ |②---|
口口口口 |③---|
16
口口口口 |①---|
①①口口 |----|
②②口口 |②---|
口口口口 |----|
17
口口口口 |①---|
口口口口 |②---|
口口①② |----|
口口口口 |----|
18
口口口口 |①---|
口口口口 |----|
②②口口 |②---|
①①口口 |----|
19
口口口口 |①---|
口口口口 |②---|
口口口③ |③---|
口口①② |----|
20
口口②② |①---|
口口①① |----|
口口口口 |②---|
口口口口 |----|
21
②①口口 |①---|
③④④口 |②---|
口口口口 |③---|
口口口口 |④---|
22
①口口② |----|
口口口口 |①---|
口口口口 |②---|
口口口口 |----|
23
口口口口 |①---|
口①④口 |②---|
口③口口 |③---|
口②口口 |④---|
24
口口口口 |----|
口口口口 |①---|
口②②口 |----|
口口①口 |②---|
25
口口口口 |①---|
①口口① |----|
口口口口
口口口口

口口口口
②②口口
口口口口 |----|
口口口口 |②---|
26
口口口口 |----|
口口口口 |①---|
①①②口 |----|
口口口口 |②---|
27
口口口口 |①---|
③③口② |②---|
口口口① |----|
口口口口 |③---|
28
口口口口 |----|
口口②口 |①---|
①①口口 |----|
口口口口 |②---|
29
口口④口 |①---|
口③口① |②---|
口口②口 |③---|
口口口口 |④---|
30
口口口口 |----|
口口①口 |①---|
口口②口 |----|
口口口口 |②---|
31
口口口口 |----|
①口②口 |①---|
口口口口 |----|
口口口口 |②---|
32
口口口口 |----|
口①口口 |①---|
口口口口 |----|
口②口口 |②---|
33
口口口口 |①---|
口口口口 |②---|
口②口③ |----|
口口①口 |③---|
34
口口②口 |----|
口口口口 |①---|
口口①口 |----|
口口口口 |②---|
35
口口口口 |----|
②③①口 |①---|
口口口口 |②---|
口口口口 |③---|
36
口口口口 |----|
口③①口 |①---|
口口口口 |②---|
口口②口 |③---|
37
口口口口 |①---|
④④口口 |②---|
口③②口 |③---|
口①口口 |④---|
38
口②口口 |----|
口口①① |①---|
口口口口 |----|
口口口口 |②---|
39
口口②口 |①---|
口口口口 |②---|
口①③口 |③---|
口口口口 |----|
40
口口口口 |①---|
③②②③ |----|
口口口口 |②---|
口①①口 |③---|
41
②①①② |①---|
口口口口 |②---|
口③③口 |----|
口口口口 |③---|
42
②口口口 |----|
口①①口 |①---|
口口口口 |----|
口口口口 |②---|
43
口口③口 |①---|
口④口口 |②---|
①口②口 |③---|
口口口口 |④---|
44
口口口口 |①---|
口口口① |----|
口口口口 |----|
口②②口 |②---|
45
③③③③ |①---|
口口④④ |②---|
②①①② |③---|
口口口口 |④---|
46
口口②口 |----|
①①口口 |①---|
口口口口 |----|
口口口口 |②---|
47
口②口口 |①---|
口口口口 |②---|
口③①口 |③---|
口口口口 |----|
48
口口口口 |①---|
③②②③ |----|
口口口口 |②---|
口①①口 |③---|
49
②①①② |①---|
口③③口 |②---|
口④④口 |③---|
口口口口 |④---|
50
口②口③ |①---|
口口口口 |----|
口口口口 |②---|
口①①口 |③---|
51
口口口口 |①---|
④口③口 |②---|
口②口① |③---|
口口口口 |④---|
52
口口口口 |①---|
口①口口 |----|
口③②口 |②---|
口口口口 |③---|
53
④④④④ |①---|
③口口③ |②---|
②口口② |③---|
口①①口 |④---|


不确定度: 0

最終更新:2013年03月23日 20:38