BRANDNEW DAYS
Purple Days

BASIC

Level: 2
BPM: 132
Notes: 202

1
口口口口 |----|
口口口口 |----|
口口口口 |----|
口口口口 |----|
2
口口口口 |①--②|
①口口② |--③-|
口③④口 |④---|
口口口口 |----|
3
口口口口 |①---|
口口口口 |----|
口口口口 |②---|
口①口② |----|
4
口口口口 |①---|
口口口口 |----|
②口①口 |②---|
口口口口 |----|
5
口②③口 |①---|
①口口口 |----|
口口口口 |②---|
口口口口 |③---|
6
口口口口 |①--②|
①口口② |--③-|
口③④口 |④---|
口口口口 |----|
7
口口口口 |①---|
口口口口 |----|
口口口口 |②---|
口①口② |----|
8
口口口口 |①---|
口口口口 |----|
②口①口 |②---|
口口口口 |----|
9
①口口② |①---|
口口口口 |----|
口口口口 |②---|
口口口口 |----|
10
口口口口 |①---|
④③②① |②---|
口口口口 |③---|
口口口口 |④---|
11
口口口口 |①---|
口口口口 |②---|
①②③④ |③---|
口口口口 |④---|
12
口口口口 |①---|
④③②① |②---|
口口口口 |③---|
口口口口 |④---|
13
口口口口 |①---|
口④④口 |②---|
①③③口 |③---|
口口②口 |④---|
14
①口口① |①---|
②口口② |----|
口口口口 |②---|
口口口口 |----|
15
口口口口 |①---|
口口口口 |②---|
①③④② |③---|
口口口口 |④---|
16
口口口口 |①---|
口口口口 |②---|
口口口口 |③---|
①③口② |----|
17
口口口口 |----|
口口口口 |----|
口口口口 |----|
口口口口 |----|
18
口②③口 |①---|
①口口④ |②---|
口口口口 |③---|
口口口口 |④---|
19
口口口口 |①---|
口口口口 |②---|
④口口① |③---|
口③②口 |④---|
20
口口口口 |①---|
口④③口 |②---|
口①②口 |③---|
口口口口 |④---|
21
口口口口 |①---|
①口口口 |----|
口口口口 |----|
口口口口 |----|
22
口口口口 |①---|
口口口口 |②---|
④口口① |③---|
口③②口 |④---|
23
口②③口 |①---|
①口口④ |②---|
口口口口 |③---|
口口口口 |④---|
24
口口口口 |①---|
口②①口 |②---|
口③④口 |③---|
口口口口 |④---|
25
口口口口 |①---|
口口口口 |----|
口口口① |②---|
口②口口 |----|
26
口口口口 |①---|
口口口口 |----|
口口口口 |②---|
口口②① |----|
27
口口口口 |①---|
②口口② |----|
③口①③ |②---|
口口口口 |③---|
28
口口口口 |①---|
口口口口 |----|
口②②口 |②---|
①口口① |----|
29
口口口口 |①---|
①口口② |----|
口口口口 |②---|
口口口口 |----|
30
口口口口 |①---|
口口②口 |----|
口①口口 |②---|
口口口口 |----|
31
口①①口 |①---|
②口口② |----|
③口口③ |②---|
口口口口 |③---|
32
口口口口 |①---|
口口口口 |----|
口②②口 |②---|
①口口① |----|
33
口②②口 |①---|
①口口① |----|
口口口口 |②---|
口口口口 |----|
34
①口口① |①---|
口口口口 |----|
口口口口 |----|
口口口口 |----|
35
口口口口 |①---|
口①①口 |----|
口口口口 |----|
口口口口 |----|
36
口口口口 |①---|
口口口口 |----|
口①①口 |----|
口口口口 |----|
37
口口口口 |①---|
口④④口 |②---|
口③③口 |③---|
①口②① |④---|
38
①口口① |①---|
②口口② |----|
口口口口 |②---|
口口口口 |----|
39
口口口口 |①---|
口③④口 |②---|
口①②口 |③---|
口口口口 |④---|
40
③①②口 |①---|
口口口口 |②---|
口口口口 |③---|
口口口口 |----|
41
口口口口 |----|
口③③口 |①---|
口②②口 |②---|
口口①口 |③---|
42
①口口① |①---|
②口口② |----|
口口口口 |②---|
口口口口 |----|
43
口口口口 |①---|
口口口口 |②---|
①口口② |③---|
③口口④ |④---|
44
口口口口 |①---|
口口口口 |②---|
口③口口 |③---|
口①②口 |----|
45
口口口口 |----|
口口口口 |----|
口口口口 |----|
口口口口 |----|
46
口口口口 |①--②|
①口口② |--③-|
口③④口 |④---|
口口口口 |----|
47
口口口口 |①---|
口口口口 |----|
口口口口 |②---|
口①口② |----|
48
口口口口 |①---|
口口口口 |----|
②口①口 |②---|
口口口口 |----|
49
口②③口 |①---|
①口口口 |----|
口口口口 |②---|
口口口口 |③---|
50
口口口口 |①--②|
①口口② |--③-|
口③④口 |④---|
口口口口 |----|
51
口口口口 |①---|
口口口口 |----|
口口口口 |②---|
口①口② |----|
52
口口口口 |①---|
口口口口 |----|
②口①口 |②---|
口口口口 |----|
53
①口口② |①---|
口口口口 |----|
口口口口 |②---|
口口口口 |----|
54
口口口口 |①---|
口口口口 |②---|
①口口④ |③---|
口②③口 |④---|
55
口③②口 |①---|
④口口① |②---|
口口口口 |③---|
口口口口 |④---|
56
口口口口 |①---|
口①②口 |②---|
口④③口 |③---|
口口口口 |④---|
57
口口口口 |①---|
②口口③ |----|
①④口口 |②--③|
口口口口 |--④-|
58
口口口口 |①---|
口口口口 |②---|
④口①口 |③---|
②口口③ |④---|
59
④口口口 |①---|
②口口③ |②---|
口口口① |③---|
口口口口 |④---|
60
口口①① |①---|
②②口口 |----|
口口口口 |②---|
口口口口 |----|
61
口口口口 |①---|
口口口口 |----|
口口①① |②---|
口②③口 |③---|
62
口口口口 |①---|
口②③口 |--②-|
①口口口 |③---|
口口口口 |----|


不确定度: 0

最終更新:2013年03月23日 20:37