だから一歩前へ踏み出して
Hi-Fi CAMP

BASIC

Level: 2
BPM: 130
Notes: 186

1
口口口口 |----|
口口口口 |----|
口口口口 |----|
口口口口 |----|
2
口口口口 |①---|
口口口② |----|
口①①口 |②---|
口口口口 |----|
3
口②②口 |①---|
①口口口 |----|
口口口口 |②---|
口口口口 |----|
4
口口口口 |①---|
口口②口 |----|
口①①口 |②---|
口口口口 |----|
5
②口口② |①---|
口①口口 |----|
口口口口 |②---|
口口口口 |----|
6
口口口口 |①---|
②口口① |----|
口口口口 |②---|
口口口口 |----|
7
口口口口 |①---|
口口口口 |----|
②口口① |②---|
口口口口 |----|
8
口口口口 |①---|
口口口口 |②---|
口④③口 |③---|
口②①口 |④---|
9
④口口③ |①---|
口②①口 |②---|
口口口口 |③---|
口口口口 |④---|
10
口口口口 |①---|
口口口口 |----|
口①①口 |----|
口口口口 |----|
11
口口口口 |①---|
①口口① |----|
口口口口 |----|
口口口口 |----|
12
口口口口 |①---|
口④③口 |②---|
口②①口 |③---|
口口口口 |④---|
13
口①①口 |①---|
口口口口 |----|
③口口② |②---|
口口口口 |③---|
14
口口口口 |①---|
④口口③ |②---|
口②①口 |③---|
口口口口 |④---|
15
口口口口 |①---|
口①①口 |----|
口②②口 |②---|
口口口口 |----|
16
口口口口 |①---|
口口口口 |----|
口口口口 |----|
口①①口 |----|
17
口④口口 |①---|
口口③口 |②---|
口②口口 |③---|
口口①口 |④---|
18
①口口① |①---|
口口口口 |----|
口口口口 |----|
口口口口 |----|
19
口口口口 |①---|
口①口口 |----|
口①口口 |----|
口口口口 |----|
20
口口口口 |①---|
口口①口 |----|
口口①口 |----|
口口口口 |----|
21
口①①口 |①---|
口口口口 |----|
口口口口 |----|
口口口口 |----|
22
口口口口 |①---|
①口口口 |----|
①口口口 |----|
口口口口 |----|
23
口口口口 |①---|
口口口① |----|
口口口① |----|
口口口口 |----|
24
口口口口 |①---|
①口口① |----|
口口口口 |----|
口口口口 |----|
25
口口口口 |----|
口口口口 |----|
口口口口 |----|
口口口口 |----|
26
口口口口 |①---|
②口口② |----|
口①①口 |②---|
口口口口 |----|
27
口口口口 |①---|
口口口口 |----|
②①②① |②---|
口口口口 |----|
28
口①①口 |①---|
②口口② |----|
口口口口 |②---|
口口口口 |----|
29
口口口口 |①---|
口口口口 |----|
口①①口 |----|
口口口口 |----|
30
口②①口 |①---|
口④③口 |②---|
口口口口 |③---|
口口口口 |④---|
31
口口口口 |①---|
口口口口 |②---|
口②①口 |③---|
口④③口 |④---|
32
口口口口 |①---|
④口口③ |②---|
②口口① |③---|
口口口口 |④---|
33
②④③① |①---|
口口口口 |②---|
口口口口 |③---|
口口口口 |④---|
34
口口口口 |①---|
口①①口 |----|
口②口② |②---|
口口口口 |----|
35
②口口② |①---|
口口口口 |----|
①口①口 |②---|
口口口口 |----|
36
口①口口 |①---|
口口②口 |----|
口口口口 |②---|
口口口口 |----|
37
口口口口 |①---|
口口口口 |----|
口①口口 |②---|
口口②口 |----|
38
口口口口 |①---|
口②口② |----|
①口口① |②---|
口口口口 |----|
39
口口口口 |①---|
①口①口 |----|
口②②口 |②---|
口口口口 |----|
40
口④口口 |①---|
口口③口 |②---|
口②口口 |③---|
口口①口 |④---|
41
①口口① |①---|
口口口口 |----|
口口口口 |----|
口口口口 |----|
42
口①①口 |①---|
口口口口 |----|
口口口口 |----|
口口口口 |----|
43
③口口③ |①---|
口②②口 |②---|
口①①口 |③---|
口口口口 |----|
44
口口口口 |①---|
口①①口 |----|
口口口口 |----|
口口口口 |----|
45
③④④③ |①---|
口②②口 |②---|
口①①口 |③---|
口口口口 |④---|
46
②口口② |----|
口①①口 |①---|
口口口口 |----|
口口口口 |②---|
47
口口口口 |----|
口口口口 |①---|
②①①② |----|
口口口口 |②---|
48
口④口口 |①---|
口口③口 |②---|
口②口口 |③---|
口口①口 |④---|
49
②口口② |①---|
①口口① |----|
口口口口 |②---|
口口口口 |----|
50
口①①口 |①---|
口口口口 |----|
口②②口 |②---|
口口口口 |----|
51
口口口口 |①---|
①口口① |----|
口②②口 |②---|
口口口口 |----|
52
口口口口 |①---|
口口①口 |②---|
口②口口 |③---|
口口③口 |----|
53
口口口口 |①---|
①③口① |----|
口口②口 |②---|
口口口口 |③---|
54
②口①② |①---|
③口口③ |②---|
口口口口 |----|
口口口口 |③---|
55
口口口口 |----|
口①①口 |①---|
口②②口 |----|
口口口口 |②---|
56
口口口口 |----|
口口口口 |①---|
①口口① |----|
口口口口 |----|
57
口④口口 |①---|
口口③口 |②---|
口②口口 |③---|
口口①口 |④---|
58
①口口① |①---|
口口口口 |----|
口口口口 |----|
口口口口 |----|


不确定度: 0

最終更新:2013年03月23日 20:34