HOT DOG
THE BAWDIES

BASIC

Level: 2
BPM: 148
Notes: 158

全程BPM在148附近飄忽不定
1
口口口口 |----|
口口口口 |----|
口口口口 |----|
口口口口 |----|
2
口口口口 |----|
口口口口 |----|
口口口口 |----|
口口口口 |----|
3
口口口口 |①---|
口口口口 |②---|
口①②口 |----|
口口口口 |----|
4
口口口口 |①---|
口①②口 |②---|
口口口口 |----|
口口口口 |----|
5
口①②口 |①---|
口口口口 |②---|
口口口口 |----|
口口口口 |----|
6
口口口口 |①---|
口①②口 |②---|
口口口口 |----|
口口口口 |----|
7
口口口口 |①---|
口口口口 |②---|
口①②口 |----|
口口口口 |----|
8
口口口口 |①---|
口口口口 |②---|
口口口口 |----|
口①②口 |----|
9
口口口口 |①---|
口口口口 |②---|
口①②口 |----|
口口口口 |----|
10
口口口口 |①---|
口①②口 |②---|
口口口口 |----|
口口口口 |----|
11
口口口口 |①---|
口口口口 |②---|
①②③④ |③---|
口口口口 |④---|
12
口口口口 |----|
①②口口 |----|
口口口口 |①---|
口口口口 |②---|
13
口口口口 |①---|
口口①② |②---|
口口口口 |----|
口口口口 |----|
14
口口口口 |----|
口口口口 |----|
口口口口 |----|
口口口口 |----|
15
口口①口 |①---|
口口②口 |②---|
口口③口 |③---|
口口④口 |④---|
16
口口口口 |----|
口口口口 |----|
口②口口 |①---|
口①口口 |②---|
17
口②口口 |①---|
口①口口 |②---|
口口口口 |----|
口口口口 |----|
18
口口口口 |----|
口口口口 |----|
口口口口 |----|
口口口口 |----|
19
口口口口 |①---|
口①①口 |----|
口口口口 |----|
口口口口 |----|
20
口口口口 |①---|
口口口口 |----|
口①①口 |②---|
②③口口 |③---|
21
口口口口 |①---|
口口口口 |②---|
口口口口 |----|
口口①② |----|
22
口口口口 |----|
口口口口 |----|
口口口口 |----|
口口口口 |----|
23
口口口口 |①---|
口③②① |----|
口口口① |②---|
口口口口 |③---|
24
口口口口 |①---|
①口口口 |----|
①②③口 |②---|
口口口口 |③---|
25
口口口口 |①---|
口口口口 |----|
口口口口 |----|
口①①口 |----|
26
口口口口 |①---|
口口口口 |----|
口①①口 |----|
口口口口 |----|
27
口口口口 |①---|
口①②口 |②---|
口③④口 |③---|
口口口口 |④---|
28
口口口口 |①---|
口口口口 |----|
口口口口 |----|
口①①口 |----|
29
口口口口 |①---|
口④③口 |②---|
口②①口 |③---|
口口口口 |④---|
30
口①①口 |①---|
口口口口 |----|
口口口口 |----|
口口口口 |----|
31
口口口口 |①---|
①③口口 |②---|
②④口口 |③---|
口口口口 |④---|
32
口口口口 |①---|
口口①口 |----|
口口①口 |----|
口口口口 |----|
33
口口口口 |①---|
口口③① |②---|
口口④② |③---|
口口口口 |④---|
34
口口口口 |①---|
口①口口 |----|
口①口口 |----|
口口口口 |----|
35
②①①口 |①---|
口口口口 |----|
口口口口 |②---|
口口口口 |----|
36
口口口口 |①---|
口①口口 |----|
②口口口 |②---|
口口口口 |----|
37
口口口口 |①---|
口口口口 |----|
口口口口 |②---|
口①②口 |----|
38
口口口口 |①---|
口口②口 |----|
口口口① |②---|
口口口口 |----|
39
口②②① |①---|
口口口口 |----|
口口口口 |②---|
口口口口 |----|
40
口口口口 |①---|
口①①口 |----|
口②②口 |②---|
口口口口 |----|
41
口口口口 |①---|
口口口口 |----|
②口口② |②---|
口①①口 |----|
42
口口口口 |----|
口口口口 |----|
口口口口 |----|
口口口口 |----|
43
口口口口 |①---|
口口口口 |②---|
口口口口 |③---|
①②③④ |④---|
44
口口口口 |①---|
口口口② |②---|
口口口① |----|
口口口口 |----|
45
④③②① |①---|
口口口口 |②---|
口口口口 |③---|
口口口口 |④---|
46
口口口口 |----|
口口口口 |----|
口口口口 |----|
口口口口 |----|
47
口口口口 |①---|
①口口口 |②---|
②口口口 |③---|
③④口口 |④---|
48
口口口口 |①---|
口口口口 |②---|
口口口口 |----|
口口①② |----|
49
口口④③ |①---|
口口口② |②---|
口口口① |③---|
口口口口 |④---|
50
口口口口 |----|
口口口口 |----|
口口口口 |----|
口口口口 |----|
51
口②①口 |----|
口口口口 |----|
口口口口 |①---|
口口口口 |②---|
52
口口口口 |①---|
口②①口 |②---|
口口③口 |③---|
口口口口 |----|
53
口口口口 |----|
口口口口 |----|
口口口口 |①---|
口①②口 |②---|
54
口口口口 |①---|
口③口口 |②---|
口①②口 |③---|
口口口口 |----|
55
①②口口 |----|
口口口口 |----|
口口口口 |①---|
口口口口 |②---|
56
口口①② |①---|
口口口③ |②---|
口口口④ |③---|
口口口口 |④---|
57
口口口口 |①---|
口口口口 |②---|
口②①口 |----|
口口口口 |----|
58
口口口口 |①---|
①口口口 |②---|
②口口口 |③---|
③④口口 |④---|
59
口口口口 |①---|
口口口口 |②---|
口口口口 |----|
口口①② |----|
60
口口口口 |①---|
④③②① |②---|
口口口口 |③---|
口口口口 |④---|
61
口口口口 |①---|
口口口口 |②---|
①口口口 |----|
②口口口 |----|
62
口口口口 |①---|
口口口口 |②---|
口口口④ |③---|
口①②③ |④---|
63
口口口② |①---|
口口口① |②---|
口口口口 |----|
口口口口 |----|
64
口口口口 |----|
口①①口 |----|
口口口口 |①---|
口口口口 |----|
65
口口口口 |----|
口①①口 |----|
口口口口 |①---|
口口口口 |----|
66
口口口口 |①---|
口口口口 |----|
①口口① |----|
口口口口 |----|


不确定度: 0

最終更新:2013年03月23日 20:30