HOT DOG
THE BAWDIES

ADVANCED

Level: 5
BPM: 148
Notes: 345

全程BPM在148附近飄忽不定
1
口口口口 |----|
口口口口 |----|
口口口口 |----|
口口口口 |----|
2
口口口口 |①-②-|
②③④① |③-④-|
⑧⑦⑥⑤ |⑤-⑥-|
口口口口 |⑦-⑧-|
3
口口口口 |①---|
②口②口 |②---|
口口口口
口①①口

③口③口
口口口口
口口口口 |③---|
口④④口 |--④-|
4
口口口③ |----|
口②口口 |①---|
口口口① |②---|
口口口口 |③---|
5
口口口口 |①---|
②口②口 |②---|
口口口口
口①①口

③口③口
口口口口
口口口口 |③---|
口④④口 |--④-|
6
口口口③ |----|
口②口口 |①---|
口口口① |②---|
口口口口 |③---|
7
口口口口 |①---|
②口②口 |②---|
口口口口
①口①①

③口③口
口口口口
口口口口 |③---|
④④口④ |--④-|
8
口口口③ |----|
口②口口 |①---|
口口口① |②---|
口口口口 |③---|
9
口口口口 |①---|
②口②口 |②---|
口口口口
①口①①

③口③口
口口口口
口口口口 |③---|
④④口④ |--④-|
10
②③④⑤ |----|
口口口口 |①---|
口口口① |②-③-|
口口口口 |④-⑤-|
11
④口口④ |①---|
③口口③ |②-③-|
口①①口 |--④-|
口②口口 |----|
12
口口口口 |----|
口口口口 |--①-|
③口①⑤ |②-③-|
②口口④ |④-⑤-|
13
口②②口 |①---|
口①①口 |②---|
口口口口 |----|
口口口口 |----|
14
①②③④ |----|
口口口口 |----|
口口口口 |①-②-|
口口口口 |③-④-|
15
④口口④ |①---|
③口口③ |②-③-|
口①①口 |--④-|
口②口口 |----|
16
口口口⑤ |----|
口口口⑤ |--①-|
③口①口 |②-③-|
②口口④ |④-⑤-|
17
①口口口 |--①-|
①②口口 |----|
口口口口 |----|
口口口口 |--②-|
18
口口口口 |--①-|
口口①口 |----|
口口口口 |--②-|
口②③口 |③---|
19
①口口① |①---|
口口口口 |----|
③口口③ |--②-|
②口口② |--③-|
20
⑤①口⑤ |----|
口口④口 |--①-|
口口③口 |②-③-|
口口②口 |④-⑤-|
21
口口口口 |--①-|
口②③口 |--②-|
口口口口 |--③-|
①口口① |----|
22
口②口口 |----|
口口口口 |----|
口口口口 |--①-|
①口口① |--②-|
23
口口①口 |①---|
口口口口 |----|
口口口口
口口口口

口③④口
口口口口
口口口口 |②-③-|
②口口② |--④-|
24
口口口口 |----|
口②④口 |--①-|
口③⑤口 |②-③-|
口口①口 |④-⑤-|
25
②口口② |①--②|
①③④① |----|
口④③口 |--③-|
口口口口 |--④-|
26
口口口口 |----|
口口口口 |----|
口口口口 |----|
①口口口 |--①-|
27
⑥口口⑦ |①-②-|
④口口⑤ |③-④-|
②口口③ |⑤-⑥-|
口⑧⑧① |⑦-⑧-|
28
口①①口 |--①-|
口口口口 |----|
口口口口 |----|
②口口口 |--②-|
29
⑥口口⑦ |①-②-|
④口口⑤ |③-④-|
②口口③ |⑤-⑥-|
口⑧⑧① |⑦-⑧-|
30
口①①口 |--①-|
口口口口 |----|
口口口口 |----|
②②②② |--②-|
31
⑤口口⑥ |--①-|
③口口④ |②-③-|
①口口② |④-⑤-|
口⑦⑦口 |⑥-⑦-|
32
口①①口 |--①-|
口口口口 |----|
口口口口 |----|
②②②② |--②-|
33
⑤口口⑥ |--①-|
③口口④ |②-③-|
①口口② |④-⑤-|
口⑦⑦口 |⑥-⑦-|
34
口①①口 |--①-|
口②③口 |--②-|
口③②口 |--③-|
口口口口 |----|
35
口①①口 |①---|
口口口口 |②---|
②口口口
口口口口

口④④口
口口口口
口口口③ |③---|
口口口口 |④---|
36
口⑤⑤口 |①-②-|
①口口③ |③-④-|
②口口④ |⑤---|
口口口口 |----|
37
口⑤⑤口 |①-②-|
口口口口 |③-④-|
口①③口 |⑤---|
口②④口 |----|
38
口⑤⑤口 |①-②-|
口口口口 |③-④-|
①②④③ |⑤---|
口⑥口口 |--⑥-|
39
④口口④ |①---|
口②③口 |②-③-|
口口口口 |④---|
口口①口 |----|
40
口⑤⑤口 |①-②-|
口①③口 |③-④-|
口②④口 |⑤---|
口⑥⑥口 |--⑥-|
41
口③③口 |①-②-|
口口口④ |--③-|
①口口② |----|
口口口口 |--④-|
42
口口口口 |--①-|
①口口口 |----|
口口口口 |----|
口口口口 |----|
43
①②③④ |①-②-|
⑦口口⑦ |③-④-|
口⑤⑤口 |⑤-⑥-|
口⑥口口 |--⑦-|
44
①口口① |--①-|
口口口口 |----|
②口口口 |----|
口口口口 |--②-|
45
口⑤⑤口 |①-②-|
口④④口 |③-④-|
口口口② |--⑤-|
①口口③ |----|
46
口口口口 |----|
口①②口 |--①-|
口口口口 |--②-|
口口口口 |----|
47
①②③④ |①-②-|
⑦口口⑦ |③-④-|
口⑤⑤口 |⑤-⑥-|
口⑥口口 |--⑦-|
48
①口口① |--①-|
口口口口 |----|
口口口口 |----|
口口口口 |----|
49
口⑤⑤口 |①-②-|
口④④口 |③-④-|
口口口口 |--⑤-|
①②③口 |----|
50
口口口口 |----|
口②①③ |--①-|
③①②口 |--②-|
口口口口 |--③-|
51
口①口② |----|
口口口口 |----|
口口口口 |①---|
口口口口 |②---|
52
口口口口 |①---|
③①④② |②---|
口口口口 |③---|
口口口口 |④---|
53
口口口口 |①---|
口口口口 |②---|
①口②口 |③---|
口③口④ |④---|
54
口口口口 |①---|
③口④口 |②---|
口①口② |③---|
口口口口 |④---|
55
①口②口 |①---|
口口口口 |②---|
口口口口
口口口口

④口口口
口口口口
口口口口 |③---|
③口口口 |④---|
56
口口口① |①---|
口口口口 |②---|
口⑤⑥口 |③-④-|
口③④② |⑤-⑥-|
57
口①①口 |--①-|
口口口口 |----|
口口口口 |----|
口口口口 |----|
58
口②①口 |①-②-|
口④③口 |③-④-|
⑥口口⑤ |⑤-⑥-|
⑧口口⑦ |⑦-⑧-|
59
①①口口 |--①-|
口口口口 |----|
口口口口 |----|
口口口口 |----|
60
①口口② |①-②-|
③口口④ |③-④-|
口⑦⑧口 |⑤-⑥-|
口⑤⑥口 |⑦-⑧-|
61
口①①口 |--①-|
口口口口 |----|
口口口口 |----|
口口口口 |----|
62
口①②口 |①-②-|
口③④口 |③-④-|
⑤口口⑥ |⑤-⑥-|
⑦口口⑧ |⑦-⑧-|
63
口口①① |--①-|
口口口口 |----|
口口口口 |----|
口口口口 |----|
64
口口口口 |----|
口口口口 |----|
口口口口 |①---|
①口②口 |②---|
65
口口口口 |①---|
口口口口 |②---|
口口口口 |③---|
③①④② |④---|
66
口口口口 |①---|
①①①① |----|
口口口口 |----|
口口口口 |----|


不确定度: 0

最終更新:2013年03月23日 20:30