Promise
NEW STRIKE ZIPPER

BASIC

Level: 3
BPM: 160
Notes: 222

BPM: 158
1
口口口口 |----|
口口口口 |----|
口口口口 |----|
口口口口 |----|
2
口口口口 |①---|
口①口口 |----|
口口口口 |----|
口口口口 |----|
3
口口口口 |①---|
口口①口 |----|
口口口口 |----|
口口口口 |----|

BPM: 161
4
口①①口 |①---|
口口口口 |----|
口口口口 |----|
口口口口 |----|

BPM: 160
5
口口口口 |①---|
口①②口 |----|
口口口口 |②---|
口口口口 |----|
6
口口口口 |①---|
口②口口 |----|
口①口口 |②---|
口口口口 |----|
7
口口口口 |①---|
口口②口 |----|
口口①口 |②---|
口口口口 |----|
8
口口口口 |①---|
②口口口 |----|
①口口口 |②---|
口口口口 |----|
9
口口口口 |①---|
口口口② |----|
口口口① |②---|
口口口口 |----|
10
口口口口 |①---|
口①口口 |----|
口②口口 |②---|
口口口口 |----|
11
口口口口 |①---|
口口①口 |----|
口口②口 |②---|
口口口口 |----|
12
口口口口 |①---|
①口口口 |----|
②口口口 |②---|
口口口口 |----|
13
口口口口 |①---|
口口口① |----|
口口口② |②---|
口口口口 |----|
14
口口口口 |①---|
口①①口 |----|
口口口口 |----|
口口口口 |----|
15
口口口口 |①---|
口口口口 |----|
口①①口 |----|
口口口口 |----|
16
口口口口 |①---|
①口口① |----|
口口口口 |----|
口口口口 |----|
17
①口口① |①---|
口口口口 |----|
口口口口 |----|
口口口口 |----|
18
口口口口 |①---|
口①①口 |----|
口口口口 |----|
口口口口 |----|
19
口口口口 |①---|
口口口口 |----|
口口口口 |----|
口①①口 |----|
20
口口口口 |①---|
口口口口 |----|
①口口① |----|
口口口口 |----|
21
①口口① |①---|
口口口口 |----|
口口口口 |----|
口口口口 |----|
22
①②口口 |①---|
口口口口 |----|
口口口口 |②---|
口口口口 |----|
23
口口①口 |①---|
口口③③ |----|
口口②② |②---|
口口口口 |③---|
24
口口口口 |①---|
口口口口 |----|
口口口口 |②---|
口口②① |----|
25
口口口口 |①---|
②②口口 |----|
③③口口 |②---|
口①口口 |③---|
26
①口②口 |①---|
口口口口 |----|
口口口口 |②---|
口口口口 |----|
27
口口口口 |①---|
口①口② |----|
口口口口 |②---|
口口口口 |----|
28
口③③口 |①---|
口口口口 |----|
①口②口 |②---|
口口口口 |--③-|
29
口口口口 |--①-|
口①①口 |--②-|
口②②口 |----|
口口口口 |----|
30
口口②① |①---|
口口口口 |----|
口口口口 |②---|
口口口口 |----|
31
口①口口 |①---|
②口②口 |----|
③口③口 |②---|
口口口口 |③---|
32
①②口口 |①---|
口口口口 |----|
口口口口 |②---|
口口口口 |----|
33
口口①口 |①---|
口③口③ |----|
口②口② |②---|
口口口口 |③---|
34
口①口① |①---|
口口口口 |----|
口②口② |②---|
口口口口 |----|
35
口口口口 |①---|
①口①口 |----|
口口口口 |②---|
②口②口 |----|
36
口②口② |①---|
口口口口 |----|
口①口① |②---|
口③③口 |--③-|
37
口口口口 |--①-|
口②②口 |--②-|
口①①口 |----|
口口口口 |----|
38
①口口① |①---|
口口口口 |----|
口口口口 |----|
口口口口 |----|
39
口口口口 |①---|
口口口口 |----|
①口口① |----|
口口口口 |----|
40
口口口口 |①---|
①口口① |----|
口口口口 |----|
口口口口 |----|
41
口口口口 |①---|
口口口口 |----|
口②③口 |②---|
①口口① |③---|
42
口①①口 |①---|
口口口口 |----|
口口口口 |----|
口口口口 |----|
43
口口口口 |①---|
口口口口 |----|
①口口① |----|
口口口口 |----|
44
口口口口 |①---|
①口口① |----|
口口口口 |----|
口口口口 |----|
45
口口口口 |①---|
口④④口 |②---|
②③③② |③---|
①口口① |④---|
46
①②口口 |①---|
口口口口 |----|
口口口口 |②---|
口口口口 |----|
47
口口①口 |①---|
口口③③ |----|
口口②② |②---|
口口口口 |③---|
48
口口口口 |①---|
口口口口 |----|
口口口口 |②---|
口口②① |----|
49
口口口口 |①---|
②②口口 |----|
③③口口 |②---|
口①口口 |③---|
50
①口②口 |①---|
口口口口 |----|
口口口口 |②---|
口口口口 |----|
51
口口口口 |①---|
口①口② |----|
口口口口 |②---|
口口口口 |----|
52
口③③口 |①---|
口口口口 |----|
①口②口 |②---|
口口口口 |--③-|
53
口口口口 |--①-|
口①①口 |--②-|
口②②口 |----|
口口口口 |----|
54
口口②① |①---|
口口口口 |----|
口口口口 |②---|
口口口口 |----|
55
口①口口 |①---|
②口②口 |----|
③口③口 |②---|
口口口口 |③---|
56
①②口口 |①---|
口口口口 |----|
口口口口 |②---|
口口口口 |----|
57
口口①口 |①---|
口③口③ |----|
口②口② |②---|
口口口口 |③---|
58
口①口① |①---|
口口口口 |----|
口②口② |②---|
口口口口 |----|
59
口口口口 |①---|
①口①口 |----|
口口口口 |②---|
②口②口 |----|
60
口②口② |①---|
口口口口 |----|
口①口① |②---|
口③③口 |--③-|
61
口口口口 |--①-|
口②②口 |--②-|
口①①口 |----|
口口口口 |----|
62
①②口口 |①---|
①口口口 |----|
口口口口 |②---|
口口口口 |----|
63
口口①口 |①---|
口③③口 |----|
口②②口 |②---|
口口口口 |③---|
64
口口口口 |①---|
口口口口 |----|
口口口① |②---|
口口②① |----|
65
口口口口 |①---|
口②②口 |----|
口③③口 |②---|
口①口口 |③---|
66
①口②口 |①---|
①口②口 |----|
口口口口 |②---|
口口口口 |----|
67
口口口口 |①---|
口①口② |----|
口①口② |②---|
口口口口 |----|
68
③口口③ |①---|
口口口口 |----|
①口②口 |②---|
①口②口 |--③-|
69
口口口口 |--①-|
①口口① |--②-|
②口口② |----|
口口口口 |----|
70
口口口口 |①---|
口口口口 |----|
口口口口
口①①口

BPM: 143.9

口口口口
②④④②
口③③口 |②---③-|
口口口口 |--④---|
71
口①①口 |①---|
口口口口 |----|
口口口口 |----|
口口口口 |----|


不确定度: 0

最終更新:2013年03月23日 17:14