Promise
NEW STRIKE ZIPPER

ADVANCED

Level: 6
BPM: 160
Notes: 474

BPM: 158
1
口口口口 |----|
口口口口 |----|
口口口口 |----|
口口口口 |----|
2
口口口口 |①---|
口口口口 |----|
①口口① |----|
口口口口 |----|
3
口口口口 |①---|
①口口① |----|
口口口口 |----|
口口口口 |----|

BPM: 161
4
口①①口 |①---|
口口口口 |----|
口①①口 |----|
口口口口 |----|

BPM: 160
5
口口口口 |①---|
①口口① |----|
口口口口 |②---|
②口口② |----|
6
口口口口 |①---|
口②④口 |②---|
口口口口 |③---|
口①③口 |④---|
7
①口口② |①-②-|
③口口④ |③-④-|
⑤口口⑥ |⑤-⑥-|
⑦口口⑧ |⑦-⑧-|
8
口②④口 |①---|
口口口口 |②---|
口①③口 |③---|
口口口口 |④---|
9
⑦口口⑧ |①-②-|
⑤口口⑥ |③-④-|
③口口④ |⑤-⑥-|
①口口② |⑦-⑧-|
10
口口口口 |①---|
口②④口 |②---|
口口口口 |③---|
口①③口 |④---|
11
①口口② |①-②-|
③口口④ |③-④-|
⑤口口⑥ |⑤-⑥-|
⑦口口⑧ |⑦-⑧-|
12
口②④口 |①---|
口口口口 |②---|
口①③口 |③---|
口口口口 |④---|
13
⑦口口⑧ |①-②-|
⑤口口⑥ |③-④-|
③口口④ |⑤-⑥-|
①口口② |⑦-⑧-|
14
口口口口 |①---|
③②口口 |----|
口①①口 |②---|
口口口口 |③---|
15
口口口口 |①---|
口口①② |②---|
口③③口 |----|
口口口口 |③---|
16
口①①口 |①---|
口④④口 |--②-|
②口口③ |③---|
口口口口 |④---|
17
①口口② |①---|
口口口口 |②---|
④③口口 |----|
口口口口 |③-④-|
18
口②④口 |--①-|
②口口④ |--②-|
③口口① |--③-|
口③①口 |--④-|
19
口口口口 |--①-|
口①⑤口 |②---|
口④②口 |--③-|
口口③口 |④-⑤-|
20
①口口① |①-②-|
②口口② |--③-|
口⑤④口 |--④-|
③口口③ |⑤---|
21
①口口① |①-②-|
②④④② |③-④-|
⑤口口⑥ |--⑤-|
口③③口 |⑥---|
22
口口口口 |----|
口口口口 |①---|
口①②口 |②---|
③口口③ |③---|
23
②口口② |①---|
口①①口 |--②-|
口口口口 |--③-|
口③④口 |④---|
24
口口②② |----|
口①口④ |①---|
口口口口 |②-③-|
③③口口 |--④-|
25
口③口口 |--①-|
口④口口 |--②-|
口①口口 |--③-|
口口口② |④---|
26
①口口② |----|
口口口④ |①-②-|
口口口口 |--③-|
③口口口 |--④-|
27
口③③口 |--①-|
口口口口 |--②-|
口口口① |--③-|
④口口② |--④-|
28
口口③③ |--①-|
②口口口 |--②-|
①口口口 |--③-|
口④口④ |--④-|
29
①①口口 |--①-|
口口②② |②-③-|
③③口口 |----|
口口口口 |----|
30
①口口① |----|
口口口口 |①---|
口②②口 |②---|
③口口③ |③---|
31
②口口② |①---|
口①①口 |--②-|
②口口② |--③-|
口③④口 |④---|
32
②口口② |----|
④①①④ |①---|
③口口③ |②-③-|
口口口口 |--④-|
33
口口口口 |--①-|
口口口口 |--②-|
口①①口
②口口②

口③③口
口④④口
口⑤⑤口 |--③-|
口口口口 |④-⑤-|
34
①口口② |----|
口④口④ |①-②-|
①口口② |--③-|
③③口口 |--④-|
35
口口③③ |--①-|
口口口口 |--②-|
口①口① |--③-|
④②④② |--④-|
36
口③口③ |--①-|
②口②口 |--②-|
①口①口 |--③-|
口口④④ |--④-|
37
①口①口 |--①-|
②口②口 |②-③-|
③口③口 |----|
口口口口 |----|
38
④口③⑥ |--①-|
口②口口 |②-③-|
口口①口 |④-⑤-|
口⑤⑦口 |⑥-⑦-|
39
④口口⑦ |--①-|
口③③口 |②-③-|
②口口① |④-⑤-|
⑤口口⑥ |⑥-⑦-|
40
口口口口 |--①-|
口口③口 |②-③-|
口②口口
口口①口

④口口⑥
口口口口
口口口口 |④-⑤-|
口⑤⑦口 |⑥-⑦-|
41
口④④口 |--①-|
口口口口 |②---|
口①②口 |③---|
③口口③ |④---|
42
⑤口口② |--①-|
口④口口 |②---|
③口口① |--③-|
口口口口 |④-⑤-|
43
口口口口 |--①-|
口⑤①口 |--②-|
④口口口 |--③-|
口③②口 |④-⑤-|
44
④口口② |--①-|
口口口口 |②---|
③口口① |--③-|
口口口口 |④---|
45
④③口④ |--①-|
⑤口②⑤ |②-③-|
⑦①口⑦ |④-⑤-|
⑥口口⑥ |⑥-⑦-|
46
①口口① |----|
口口口口 |①---|
口②②口 |②---|
③口口③ |③---|
47
②②②② |①---|
口①①口 |--②-|
口口口口 |--③-|
口③④口 |④---|
48
②口口② |----|
④①①④ |①---|
③口口③ |②-③-|
口口口口 |--④-|
49
口③③口 |--①-|
口④④口 |--②-|
口①①口 |--③-|
②口口② |④---|
50
①口口② |----|
口④口④ |①-②-|
①口口② |--③-|
③③口口 |--④-|
51
口口③③ |--①-|
口口口口 |--②-|
口①口① |--③-|
④②④② |--④-|
52
口③口③ |--①-|
②口②口 |--②-|
①口①口 |--③-|
口口④④ |--④-|
53
①口①口 |--①-|
②口②口 |②-③-|
③口③口 |----|
口口口口 |----|
54
①口口① |----|
口口口口 |①---|
口②②口 |②---|
③口口③ |③---|
55
②口口② |①---|
口①①口 |--②-|
②口口② |--③-|
口③④口 |④---|
56
②④④② |----|
④①①④ |①---|
③口口③ |②-③-|
口口口口 |--④-|
57
口口口口 |--①-|
口口口口 |--②-|
②①①②
②口口②

口③③口
口④④口
口⑤⑤口 |--③-|
口口口口 |④-⑤-|
58
①口口② |----|
口④口④ |①-②-|
①口口② |--③-|
③③口口 |--④-|
59
口口③③ |--①-|
口口口口 |--②-|
口①口① |--③-|
④②④② |--④-|
60
口③口③ |--①-|
②口②口 |--②-|
①口①口 |--③-|
口口④④ |--④-|
61
①口①口 |--①-|
口②口② |②-③-|
③口③口 |----|
口口口口 |----|
62
①①①① |----|
口口口口 |①---|
②②②② |②---|
③口口③ |③---|
63
②①①② |①---|
口①①口 |--②-|
口②②口 |--③-|
③口口④ |④---|
64
②口口③ |----|
④①①④ |①---|
③口口② |②-③-|
口口口口 |--④-|
65
口④③口 |--①-|
口③④口 |--②-|
口①口② |--③-|
②口①口 |④---|
66
①口口② |----|
口④口④ |①-②-|
①口口② |--③-|
③③③口 |--④-|
67
口口口口 |--①-|
口口口口 |--②-|
口①口①
口②口②

口③③③
口口口口
口④口口 |--③-|
④口④口 |--④-|
68
口③口③ |--①-|
②口②口 |--②-|
①口①口 |--③-|
口口④④ |--④-|
69
①口①口 |--①-|
口②口② |②-③-|
③口③口 |----|
口口口口 |----|
70
口口口口 |①---|
口口口口 |----|
口口口口
口①①口

BPM: 143.9

②②②②
口口口口
④口口④ |②---③-|
③口口③ |--④---|
71
口口口口 |①---|
①①①① |----|
口口口口 |----|
口口口口 |----|


不确定度: 0

最終更新:2013年03月23日 17:13