Lost Boy
SEAMO

BASIC

Level: 2
BPM: 100
Notes: 163

1
口口口口 |----|
口口口口 |----|
口口口口 |----|
口口口口 |----|
2
口口口口 |①---|
口①①口 |----|
口②②口 |②---|
口口口口 |----|
3
口口口口 |①---|
②口口② |----|
口口口口 |②---|
口①①口 |----|
4
口口口口 |①---|
口①①口 |----|
口②②口 |②---|
口口口口 |----|
5
口口口口 |①---|
口口口口 |----|
②口口② |②---|
口①①口 |----|
6
①口口② |①---|
口③③口 |②---|
口口口口 |③---|
口口口口 |----|
7
口口口口 |①---|
①口口② |②---|
口③③口 |③---|
口口口口 |----|
8
口口口口 |①---|
口口口口 |②---|
①口口② |③---|
口③③口 |----|
9
口口口口 |①---|
口口口口 |②---|
口③④口 |③---|
①口口② |④---|
10
口口口口 |①---|
①口口① |----|
②②口口 |②---|
口口口口 |----|
11
口口口口 |①---|
口口口口 |----|
口口①①
口口口口

口口口口
口口口口
口③③口 |②---|
口②②口 |③---|
12
口口口口 |①---|
①口口① |----|
②②口口 |②---|
口口口口 |----|
13
口口口口 |①---|
口口口口 |----|
口口①① |②---|
口②②口 |----|
14
口口口④ |①---|
①②③口 |②---|
口口口口 |③---|
口口口口 |④---|
15
口口口口 |①---|
④口口口 |②---|
口③②① |③---|
口口口口 |④---|
16
口口口口 |①---|
口口口口 |----|
口口口口 |②---|
口①②口 |----|
17
口口口口 |①---|
口口口口 |②---|
①②③④ |③---|
口口口口 |④---|
18
口②④口 |①---|
口①③口 |②---|
口口口口 |③---|
口口口口 |④---|
19
口口口口 |①---|
①口口④ |②---|
口②③口 |③---|
口口口口 |④---|
20
口口口口 |①---|
口口口口 |②---|
②③③① |③---|
口口口口 |----|
21
口④④口 |①---|
①③③② |②---|
口口口口 |③---|
口口口口 |④---|
22
口口口口 |----|
①口口口 |①---|
②口口口 |②---|
③口口口 |③---|
23
口口口口 |----|
口口口③ |①---|
口口口② |②---|
口口口① |③---|
24
口口口口 |----|
③口口口 |①---|
②口①口 |②---|
口口口口 |③---|
25
口口口口 |①---|
口口口④ |②---|
口①②③ |③---|
口口口口 |④---|
26
口口口口 |①---|
口①口口 |②---|
口②口口 |③---|
口口③④ |④---|
27
口口口口 |①---|
口口①口 |②---|
口口②口 |③---|
④③口口 |④---|
28
口口口口 |①---|
口口口口 |②---|
口③③口 |③---|
口口①② |----|
29
口③③口 |①---|
①口口② |②---|
口口口口 |③---|
口口口口 |----|
30
口口口口 |①---|
②口口② |--②-|
口①①口 |----|
口口口口 |----|
31
口口口口 |--①-|
①口口口 |②-③-|
②口口口 |④--⑤|
③④口⑤ |----|
32
口口口口 |①---|
②口口② |--②-|
口①①口
口口口口

口口口口
口④④口
口③③口 |---③|
口口口口 |--④-|
33
口口口① |--①-|
口口口② |②-③-|
口口口③ |④-⑤-|
⑥口⑤④ |--⑥-|
34
口口口口 |①-②-|
口⑥口⑤ |③-④-|
①②③④ |⑤--⑥|
口口口口 |----|
35
①②③④ |①-②-|
口口口⑤ |③-④-|
口口⑥口 |⑤--⑥|
口口⑦口 |--⑦-|
36
③④口口 |--①-|
②⑤口口 |②-③-|
①口口口 |④-⑤-|
口⑥口口 |--⑥-|
37
口⑦⑦口 |--①-|
口⑥⑤口 |②-③-|
①②③④ |④-⑤-|
口口口口 |⑥-⑦-|
38
①口口① |①---|
口口口口 |----|
口口口口 |----|
口口口口 |----|


不确定度: 0

最終更新:2013年03月23日 17:01