The Wind of Gold
kors k

EXTREME

Level: 10
BPM: 170
Notes: 814

1
口口口口 |----|
口口口口 |----|
口口口口 |----|
口口口口 |----|
2
①口④口 |①-②-|
③口口② |③-④-|
⑤口口口 |⑤---|
⑥①①⑥ |⑥---|
3
①口④口 |①-②-|
③口口口 |③-④-|
⑤口口② |⑤---|
⑥口①口 |⑥---|
4
①口④口 |①-②-|
③口口口 |③-④-|
⑤口口② |⑤---|
⑥口①口 |⑥---|
5
①口口口 |①---|
②口口口 |②---|
③口口口 |③---|
④口口口 |④---|
6
①口④口 |①-②-|
③口口② |③-④-|
⑤口口口 |⑤---|
⑥口①⑥ |⑥---|
7
①口④口 |①-②-|
③口口口 |③-④-|
⑤口口② |⑤---|
⑥口①口 |⑥---|
8
口口口口 |①②③④|
①⑤④口 |⑤⑥⑦⑧|
⑦口口⑥
口③⑧②

⑪⑬⑯⑭
口口口⑩
口⑨⑫口 |⑨⑩⑪⑫|
口⑮口口 |⑬⑭⑮⑯|
9
口⑩⑩口 |①②③④|
⑤⑥⑦口 |⑤---|
③⑧⑨④ |⑥⑦⑧⑨|
①口口② |⑩---|
10
①⑥⑥② |①--②|
③④④② |③-④-|
⑤口口① |⑤-⑥-|
⑦口①口 |⑦---|
11
①⑦⑦① |①--②|
③口口① |③-④-|
⑤⑥②② |⑤⑥--|
⑦⑥④④ |⑦---|
12
①⑦⑦② |①--②|
③④②④ |③-④-|
⑤口①① |⑤⑥--|
⑦⑥口⑥ |⑦---|
13
①⑦⑦② |①--②|
③④②④ |③-④-|
⑤口①① |⑤⑥--|
⑦⑥口⑥ |⑦---|
14
①⑥⑥② |①--②|
③④④② |③-④-|
⑤口口① |⑤-⑥-|
⑦口①口 |⑦---|
15
①⑦⑦① |①--②|
③口口① |③-④-|
⑤⑥②② |⑤⑥--|
⑦⑥④④ |⑦---|
16
①⑦⑦④ |①--②|
③②④② |③-④-|
⑤口①① |⑤⑥--|
⑦⑥口⑥ |⑦---|
17
口⑤⑥口 |①---|
④②③口 |--②③|
口①①口 |④--⑤|
⑤⑥口④ |--⑥-|
18
①⑥⑥② |①--②|
③④④② |③-④-|
⑤口口① |⑤-⑥-|
⑦口①口 |⑦---|
19
①⑦⑦① |①--②|
③口口① |③-④-|
⑤⑥②② |⑤⑥--|
⑦⑥④④ |⑦---|
20
①⑦⑦② |①--②|
③④②④ |③-④-|
⑤口①① |⑤⑥--|
⑦⑥口⑥ |⑦---|
21
①口⑤口 |①---|
④②②③ |②-③-|
③口①① |--④-|
口口④⑤ |--⑤-|
22
④①⑤④ |①--②|
③⑥⑤② |--③-|
②⑦②③ |--④-|
①口③口 |⑤-⑥⑦|
23
口②口口 |①--②|
口口口① |--③-|
口口①②
口①③③

⑤口⑤④
⑥口口⑤
⑦口口口 |-④--|
⑧口口口 |⑤⑥⑦⑧|
24
⑤②⑤③ |①--②|
口④④口 |--③-|
口①①口 |-④--|
口③口② |⑤---|
25
④口口③ |①--②|
①⑤⑤② |--③-|
口口口口 |-④--|
④②①③ |⑤---|
26
口口口口 |①---|
①口口① |----|
口口口口 |----|
口①①口 |----|
27
口口口口 |----|
口口口口 |----|
口口口口 |----|
口口口口 |----|
28
①口口口 |①---|
口①口② |②-③-|
③口②口 |----|
口③口口 |----|
29
⑤④③⑤ |--①-|
口②①口 |②-③-|
④口口③ |④---|
②口口① |⑤---|
30
口口口口 |①---|
口口口口 |----|
口口口口 |----|
①口口① |----|
31
口口口口 |----|
口口口口 |----|
口口口口 |----|
口口口口 |----|
32
口口口③ |①---|
②口③口 |②-③-|
口②口① |----|
口口①口 |----|
33
口②②口 |----|
口③口口 |--①-|
口④⑤口 |--②-|
口①①口 |③-④⑤|
34
①口口① |①---|
②口口口 |②---|
③口口口 |③---|
④口口口 |④---|
35
①⑤⑤口 |①---|
②口口口 |②-③-|
④⑦⑦口 |④-⑤-|
⑥③③口 |⑥-⑦-|
36
①口口口 |①---|
②口口口 |②---|
③口口口 |③---|
④口口口 |④---|
37
①⑤⑤口 |①---|
②口口口 |②-③-|
④⑦⑦口 |④-⑤-|
⑥③③口 |⑥-⑦-|
38
①⑦⑧① |①---|
②口②③ |②--③|
④⑥⑥口 |④⑤--|
⑥口口⑤ |⑥-⑦⑧|
39
①⑦⑦① |①---|
②口⑤⑥ |②--③|
④⑧⑧③ |④⑤⑥-|
⑦②②口 |⑦-⑧-|
40
①口口① |①---|
口口口口 |②--③|
②口口②
口③③口

⑥④④⑥
口口口口
口⑤⑤口 |-④--|
口口口口 |⑤-⑥-|
41
口⑩⑩口 |①②③④|
⑤⑥⑦口 |⑤---|
③⑧⑨④ |⑥⑦⑧⑨|
①口口② |⑩---|
42
①⑥口① |①---|
②②⑦② |②--③|
④③③① |④⑤--|
⑥⑤⑤口 |⑥-⑦-|
43
①⑦口① |①---|
②②⑥② |②--③|
④③③① |④⑤--|
⑥⑤⑤口 |⑥-⑦-|
44
①口③口 |①---|
②③口口 |②--③|
口②口①
口口口①

口口口⑦
口口⑦⑤
④口⑤⑥ |④⑤--|
⑥口⑥口 |⑥-⑦-|
45
①②口口 |①-②-|
③口口④ |③④--|
口②④口
口口口口

口⑧⑧口
口口⑥口
⑤口口口 |⑤-⑥-|
⑦口⑦⑤ |⑦-⑧-|
46
①⑥⑧① |①---|
②②⑦② |②--③|
④③③① |④⑤--|
⑥⑤⑤口 |⑥-⑦⑧|
47
①⑦口① |①---|
②口⑧口 |②--③|
④③⑥② |④⑤⑥-|
⑦⑤口② |⑦-⑧-|
48
①口③③ |①---|
②口口口 |②--③|
口②口①
口口②①

口口口口
口⑤⑦口
④口⑤口 |④⑤--|
⑥口口⑥ |⑥-⑦-|
49
①②⑥口 |①-②-|
③口⑩④ |③-④⑤|
⑤⑧口③ |⑥⑦⑧-|
⑦⑨⑨口 |⑨-⑩-|
50
①⑥口① |①---|
②②⑦② |②--③|
④③③① |④⑤--|
⑥⑤⑤口 |⑥-⑦-|
51
①⑦口① |①---|
②②⑥② |②--③|
④③③① |④⑤--|
⑥⑤⑤口 |⑥-⑦-|
52
①口③口 |①---|
②③口口 |②--③|
口②口①
口口口①

口口口⑦
口口⑦⑤
④口⑤⑥ |④⑤--|
⑥口⑥口 |⑥-⑦-|
53
①②口口 |①-②-|
③口口④ |③④--|
口②④口
口口口口

口⑧⑧口
口口⑥口
⑤口口口 |⑤-⑥-|
⑦口⑦⑤ |⑦-⑧-|
54
①⑥⑧① |①---|
②②⑦② |②--③|
④③③① |④⑤--|
⑥⑤⑤口 |⑥-⑦⑧|
55
①⑦口① |①---|
②口⑧口 |②--③|
④③⑥② |④⑤⑥-|
⑦⑤口② |⑦-⑧-|
56
①口③③ |①---|
②口口口 |②--③|
口②口①
口口②①

口口口口
口⑤⑦口
④口⑤口 |④⑤--|
⑥口口⑥ |⑥-⑦-|
57
口①④口 |--①-|
①⑤口③ |②-③-|
③口⑥② |④-⑤-|
口⑦②口 |⑥-⑦-|
58
①⑥⑥② |①--②|
③④④② |③-④-|
⑤口口① |⑤-⑥-|
⑦口①口 |⑦---|
59
①⑦⑦① |①--②|
③口口① |③-④-|
⑤⑥②② |⑤⑥--|
⑦⑥④④ |⑦---|
60
①⑦⑦② |①--②|
③④②④ |③-④-|
⑤口①① |⑤⑥--|
⑦⑥口⑥ |⑦---|
61
①⑦⑦② |①--②|
③④②④ |③-④-|
⑤口①① |⑤⑥--|
⑦⑥口⑥ |⑦---|
62
①⑥⑥② |①--②|
③④④② |③-④-|
⑤口口① |⑤-⑥-|
⑦口①口 |⑦---|
63
①⑦⑦① |①--②|
③口口① |③-④-|
⑤⑥②② |⑤⑥--|
⑦⑥④④ |⑦---|
64
①口口④ |①--②|
③②②④ |③-④-|
⑤⑥①① |⑤⑥--|
⑦⑥⑦⑦ |⑦---|
65
①④口④ |①--②|
③②②口 |③-④-|
口口①①
口口口口

口口⑥口
口口口⑥
⑤口口⑦ |⑤⑥--|
⑦口口⑦ |⑦---|
66
①④④① |----|
口②②口 |①-②-|
③①①口 |③-④-|
⑤口口口 |⑤---|
67
①⑦⑦① |①--②|
③口口① |③-④-|
⑤⑥②② |⑤⑥--|
⑦⑥④④ |⑦---|
68
①⑦⑦② |①--②|
③④②④ |③-④-|
⑤口①① |⑤⑥--|
⑦⑥口⑥ |⑦---|
69
①⑦⑦② |①--②|
③④②④ |③-④-|
⑤⑧①① |⑤⑥--|
⑦⑥口⑥ |⑦-⑧-|
70
口口口⑥ |--①②|
③①②③ |③-④-|
⑤口⑥④ |⑤-⑥-|
⑦口④口 |⑦---|
71
①⑦口⑦ |①--②|
③①④① |③-④-|
⑤⑥⑥④ |⑤⑥--|
⑦②口② |⑦---|
72
①⑦②⑦ |①--②|
③④④② |③-④-|
⑤⑥⑥口 |⑤⑥--|
⑦口①① |⑦---|
73
口⑤④口 |①--②|
③口口② |--③-|
③口口② |-④--|
⑤①①④ |⑤---|
74
口口口口 |①---|
口①①口 |----|
口①①口 |----|
口口口口 |----|


不确定度: 0

最終更新:2012年11月07日 23:46