大迷惑
UNICORN

BASIC

Level: 3
BPM: 188
Notes: 154

1
口口口口 |----|
口口口口 |----|
口口口口 |----|
口口口口 |----|
2
口口口口 |①---|
口①口口 |----|
口口口口 |----|
口口口口 |----|
3
口口口口 |①---|
口口①口 |----|
口口口口 |----|
口口口口 |----|
4
口口口口 |①---|
口口口口 |----|
口①口口 |----|
口口口口 |----|
5
口口口口 |①---|
口口口口 |----|
口口①口 |----|
口口口口 |----|
6
口口口口 |①---|
①口口口 |----|
口口口口 |----|
口口口口 |----|
7
口口口口 |①---|
口①口口 |----|
口口口口 |----|
口口口口 |----|
8
口口口口 |①---|
口口①口 |----|
口口口口 |----|
口口口口 |----|
9
口口口口 |①---|
口口口① |----|
口口口口 |----|
口口口口 |----|
10
口口口口 |①---|
口口口口 |----|
口口口① |----|
口口口口 |----|
11
口口口口 |①---|
口口口口 |----|
口口①口 |----|
口口口口 |----|
12
口口口口 |①---|
口口口口 |----|
口①口口 |----|
口口口口 |----|
13
口口口口 |①---|
口口口口 |----|
①口口口 |----|
口口口口 |----|
14
②口口① |①---|
口口口口 |----|
口口口口 |②---|
口口口口 |----|
15
口口口口 |①---|
口①①口 |②---|
口②②口 |----|
口口口口 |----|
16
口口口口 |①---|
①口口口 |----|
口口口口 |----|
口口口口 |----|
17
口口口口 |①---|
口口口① |----|
口口口口 |----|
口口口口 |----|
18
口口口口 |①---|
口①②口 |----|
口口口口 |②---|
口口口口 |----|
19
口口口口 |①---|
口口口① |----|
口口口① |----|
口口口口 |----|
20
口口口口 |①---|
口口口口 |----|
口②①口 |②---|
口口口口 |----|
21
口口口口 |①---|
①口口口 |----|
①口口口 |----|
口口口口 |----|
22
①口口② |①---|
口口口口 |----|
口口口口 |②---|
口口口口 |----|
23
口口口口 |①---|
口①②口 |②---|
口口口口 |----|
口口口口 |----|
24
口口口口 |①---|
口口口口 |----|
口①①口 |----|
口口口口 |----|
25
口口口口 |①---|
口口口口 |----|
口口口口 |----|
口①①口 |----|
26
口口口口 |①---|
①口口② |----|
口口口口 |②---|
口口口口 |----|
27
口口口口 |①---|
口口口口 |②---|
口①②口 |----|
口口口口 |----|
28
口①②口 |①---|
口③④口 |②---|
口口口口 |③---|
口口口口 |④---|
29
口口口口 |①---|
口口口口 |----|
口口口口 |----|
口①①口 |----|
30
口口口口 |----|
口口口口 |----|
口口口口 |----|
口口口口 |----|
31
口口口口 |①---|
口口口口 |----|
口①①口 |----|
口口口口 |----|
32
口①①口 |①---|
口口口口 |----|
口口口口 |----|
口口口口 |----|
33
口口口口 |①---|
①②口口 |----|
口口口口 |②---|
口口口口 |----|
34
口口口口 |①---|
口口①口 |----|
口口口口 |----|
口口口口 |----|
35
口口口口 |①---|
口口口口 |----|
口口②① |②---|
口口口口 |----|
36
口口口口 |①---|
口口口口 |----|
口①口口 |----|
口口口口 |----|
37
口口口口 |①---|
①②③④ |②---|
口口口口 |③---|
口口口口 |④---|
38
口口口口 |①---|
口口口口 |----|
口口口① |----|
口口口口 |----|
39
①口口口 |①---|
口口口口 |----|
口口口口 |----|
口口口口 |----|
40
口口口① |①---|
口口口口 |----|
口口口口 |----|
口口口口 |----|
41
口口口口 |①---|
①口口口 |----|
口口口口 |----|
口口口口 |----|
42
口口口口 |①---|
口口口① |----|
口口口口 |----|
口口口口 |----|
43
口口口口 |①---|
口口口口 |----|
①口口口 |----|
口口口口 |----|
44
口口口口 |①---|
口口口口 |----|
口口口① |----|
口口口口 |----|
45
口①口口 |①---|
口①①口 |----|
口②②口 |②---|
口口口口 |----|
46
口②③口 |①---|
口口口口 |----|
口口口口 |②---|
口①①口 |③---|
47
口口口口 |①---|
口①②口 |②---|
口③④口 |③---|
口口口口 |④---|
48
①口口① |①---|
②口口② |②---|
③口口③ |③---|
④口口④ |④---|
49
①②③④ |①---|
口口口口 |②---|
口口口口 |③---|
口口口口 |④---|
50
口口口口 |①---|
口口口① |②---|
口口口② |③---|
口口④③ |④---|
51
口口口口 |①---|
④口口口 |②---|
③口口口 |③---|
②①口口 |④---|
52
口口口口 |①---|
口①②口 |②---|
口④③口 |③---|
口口口口 |④---|
53
①②③④ |①---|
口口口口 |②---|
口口口口 |③---|
口口口口 |④---|
54
口口口口 |①---|
口口口① |②---|
口口口② |③---|
口口④③ |④---|
55
口口口口 |①---|
④口口口 |②---|
③口口口 |③---|
②①口口 |④---|
56
口口口口 |①---|
口①②口 |②---|
口④③口 |③---|
口口口口 |④---|
57
④③②① |①---|
口口口口 |②---|
口口口口 |③---|
口口口口 |④---|
58
口口口口 |①---|
①口口口 |②---|
②口口口 |③---|
③④口口 |④---|
59
口口口口 |①---|
口口口④ |②---|
口口口③ |③---|
口口①② |④---|
60
口口口口 |①---|
口②①口 |②---|
口③④口 |③---|
口口口口 |④---|
61
④③②① |①---|
口口口口 |②---|
口口口口 |③---|
口口口口 |④---|
62
口口口口 |①---|
①口口口 |②---|
②口口口 |③---|
③④口口 |④---|
63
口口口口 |①---|
口口口④ |②---|
口口口③ |③---|
口口①② |④---|
64
口口口口 |①---|
口②①口 |②---|
口③④口 |③---|
口口口口 |④---|
65
口①①口 |①---|
口口口口 |----|
口口口口 |----|
口口口口 |----|


不确定度: 0

最終更新:2013年03月23日 16:20