大迷惑
UNICORN

ADVANCED

Level: 6
BPM: 188
Notes: 331

1
口口口口 |----|
口口口口 |----|
口口口口 |----|
口口口口 |----|
2
口口口口 |①---|
①②③④ |②---|
口口口口 |③---|
口口口口 |④---|
3
口口口口 |①---|
口口口口 |②---|
①②③④ |③---|
口口口口 |④---|
4
口口口口 |①---|
①②③④ |②---|
口口口口 |③---|
口口口口 |④---|
5
口口口口 |①-②-|
口口口口 |③---|
①③④⑤ |④---|
②口④⑤ |⑤---|
6
①口口④ |①---|
③口口② |②---|
口口口口 |③---|
口口口口 |④---|
7
口口口口 |①---|
口口口口 |②---|
①口口④ |③---|
③口口② |④---|
8
①口口② |①---|
口③④口 |②---|
口口口口 |③---|
口口口口 |④---|
9
口口口口 |①---|
口③④口 |②---|
口②①口 |③---|
口口口口 |④---|
10
①口口口 |①---|
③口口口 |②---|
口口口④ |③---|
口口口② |④---|
11
口口口④ |①---|
口口口② |②---|
①口口口 |③---|
③口口口 |④---|
12
口①口口 |①---|
口口②口 |②---|
口③口口 |③---|
口口④口 |④---|
13
口口①口 |①---|
口②口口 |②---|
口口③口 |③---|
口④口口 |④---|
14
口口口口 |①---|
①口口② |②---|
④口口② |③---|
④口口③ |④---|
15
口①口口 |①-②-|
口口②口 |③-④-|
口③口口 |----|
口口④口 |----|
16
口口③② |①---|
口①口口 |----|
口口①口 |----|
②③口口 |②-③-|
17
口口口口 |①-②-|
④③①② |----|
②①③④ |③-④-|
口口口口 |----|
18
口口口口 |①-②-|
⑤⑥⑦口 |③-④-|
口②④口 |--⑤-|
口①③口 |⑥-⑦-|
19
口③②口 |①---|
口口口① |②-③-|
口口口口 |----|
口口口口 |----|
20
①②②① |①---|
③④④③ |②---|
⑤口口⑤ |③-④-|
口口口口 |--⑤-|
21
口口口口 |----|
口口口口 |----|
口口口口 |----|
口口口口 |----|
22
①口口③ |①---|
②口口④ |②---|
口口口口 |③---|
口口口口 |④---|
23
口口口口 |①-②-|
口口口口 |③-④-|
①④③② |----|
②③④① |----|
24
②③④口 |①---|
口①①口 |----|
口口口口 |--②-|
口口口口 |③-④-|
25
口口口口 |①-②-|
④口口② |----|
口口口口 |③-④-|
③口口① |----|
26
口口②① |①-②-|
口⑤③④ |③-④-|
口口⑥口 |--⑤-|
口口口口 |--⑥-|
27
口口口口 |①-②-|
口口口口 |③-④-|
口口口口 |----|
①②③④ |----|
28
①口口① |①---|
口④④口 |②---|
口③③口 |③---|
②口口② |④---|
29
口①①口 |①---|
口口口口 |----|
口口口口 |----|
口口口口 |----|
30
口口口口 |----|
②①②① |----|
①②①② |①---|
口口口口 |②---|
31
口①①口 |①---|
口口口口 |----|
②口口口 |----|
口口口口 |②---|
32
口口口口 |①-②-|
口口口口 |----|
口口①② |----|
口口口口 |----|
33
口口口口 |①---|
口口口口 |②---|
⑤口④口 |③-④-|
口③②① |--⑤-|
34
口口口口 |----|
口口口口 |----|
口口口口 |----|
口口口口 |----|
35
口①口口 |①---|
口口口口 |----|
口②口口 |----|
口口口口 |②---|
36
口口口口 |①-②-|
口①口口 |----|
口口②口 |----|
口口口口 |----|
37
①口②口 |①---|
口③④口 |②---|
口口口口 |③-④-|
口口⑤口 |--⑤-|
38
口口口口 |----|
口口口口 |----|
口口口口 |----|
口口口口 |----|
39
口口口口 |①---|
口口口口 |----|
口②②口 |----|
口①①口 |②---|
40
①口口① |①---|
口①①口 |----|
口口口口 |----|
口口口口 |----|
41
⑤口④口 |①---|
口③口⑤ |②---|
口②②口 |③-④-|
口①①口 |--⑤-|
42
口口口口 |----|
口口口口 |----|
口口口口 |----|
口口口口 |----|
43
口①①口 |①---|
口口口口 |----|
口口口口 |----|
口②②口 |②---|
44
口口口口 |①-②-|
①口口② |----|
口口口口 |----|
口口口口 |----|
45
①口口口 |①---|
①②④③ |②---|
①口口③ |③---|
口口口口 |④---|
46
口口口口 |①---|
口②③口 |----|
口①①口 |②-③-|
口④⑤口 |④-⑤-|
47
②口口② |①---|
③口口④ |②---|
①口口① |③-④-|
③口口④ |----|
48
口口口口 |----|
口口口口 |----|
口口口口 |----|
口口口口 |----|
49
①②③④ |--①-|
口口口⑤ |②-③-|
口口口⑥ |④-⑤-|
口口口⑦ |⑥-⑦-|
50
口口口口 |①-②-|
⑤⑥⑦口 |③-④-|
④口口口 |⑤-⑥-|
③②①口 |⑦---|
51
①②③④ |--①-|
口口口⑤ |②-③-|
口口口⑥ |④-⑤-|
口口口⑦ |⑥-⑦-|
52
口口口口 |①-②-|
⑤⑥⑦口 |③-④-|
④口口口 |⑤-⑥-|
③②①口 |⑦---|
53
①②③④ |--①-|
口口口⑤ |②-③-|
口口口⑥ |④-⑤-|
口口口⑦ |⑥-⑦-|
54
口口口口 |①-②-|
⑤⑥⑦口 |③-④-|
④口口口 |⑤-⑥-|
③②①口 |⑦---|
55
①②③④ |--①-|
口⑦⑥⑤ |②-③-|
口口口口 |④-⑤-|
口口口口 |⑥-⑦-|
56
口口口口 |①---|
③口口④ |②---|
⑤②②⑥ |③-④-|
口①①口 |⑤-⑥-|
57
④③②① |--①-|
⑤口口口 |②-③-|
⑥口口口 |④-⑤-|
⑦口口口 |⑥-⑦-|
58
口口口口 |①-②-|
口⑦⑥⑤ |③-④-|
口口口④ |⑤-⑥-|
口①②③ |⑦---|
59
④③②① |--①-|
⑤口口口 |②-③-|
⑥口口口 |④-⑤-|
⑦口口口 |⑥-⑦-|
60
口口口口 |①-②-|
口⑦⑥⑤ |③-④-|
口口口④ |⑤-⑥-|
口①②③ |⑦---|
61
④③②① |--①-|
⑤口口口 |②-③-|
⑥口口口 |④-⑤-|
⑦口口口 |⑥-⑦-|
62
口口口口 |①-②-|
口口⑥⑤ |③-④-|
口口口④ |⑤-⑥-|
口①②③ |----|
63
⑦⑥口口 |--①-|
口口⑤④ |②-③-|
①②③口 |④-⑤-|
口口口口 |⑥-⑦-|
64
④④④④ |①---|
③③③③ |②---|
②②②② |③---|
①①①① |④---|
65
口口口口 |①---|
口口口口 |----|
口口口口 |----|
①①①① |----|


不确定度: 0

最終更新:2013年03月23日 16:20