スマイル一番 イイ♀
アンティック-珈琲店-

BASIC

Level: 3
BPM: 153
Notes: 204

1
口口口口 |----|
口口口口 |----|
口口口口 |----|
口口口口 |----|
2
口口口口 |①---|
口口口口 |----|
口口口口 |②---|
①口③② |③---|
3
口口口口 |①---|
口口口口 |----|
①口③② |②---|
口口口口 |③---|
4
口口口口 |①---|
①口③② |----|
口口口口 |②---|
口口口口 |③---|
5
①口③② |①---|
口口口口 |----|
口口口口 |②---|
口口口口 |③---|
6
口口口口 |①---|
①口③② |----|
口口口口 |②---|
口口口口 |③---|
7
口口口口 |①---|
口口口口 |----|
①口③② |②---|
口口口口 |③---|
8
口口口口 |①---|
口口口口 |----|
口口口口 |②---|
①口③② |③---|
9
口口口口 |①---|
口口口口 |----|
口①①口 |----|
口口口口 |----|
10
口口口口 |①---|
口口口口 |②---|
①③②口 |③---|
口口口口 |----|
11
口口②② |①---|
口口①① |----|
口口口口 |②---|
口口口口 |----|
12
口口口口 |①---|
口口口口 |②---|
口②③① |③---|
口口口口 |----|
13
②②口口 |①---|
①①口口 |----|
口口口口 |②---|
口口口口 |----|
14
口口口口 |①---|
②口口② |----|
口①①口 |②---|
口口口口 |----|
15
②③③② |①---|
口①①口 |----|
口口口口 |②---|
口口口口 |③---|
16
口⑦⑦口 |①-②-|
口⑥①口 |③-④-|
口②⑤口 |⑤-⑥-|
口④③口 |⑦---|
17
口⑤⑤口 |①-②-|
口④①口 |③-④-|
口②③口 |⑤---|
口口口口 |----|
18
口口口口 |①---|
口口口口 |----|
口口口口 |②---|
①口③② |③---|
19
口口口口 |①---|
口口口口 |----|
①口③② |②---|
口口口口 |③---|
20
口口口口 |①---|
①口③② |----|
口口口口 |②---|
口口口口 |③---|
21
①口③② |①---|
口口口口 |----|
口口口口 |②---|
口口口口 |③---|
22
口口口口 |①---|
①口③② |----|
口口口口 |②---|
口口口口 |③---|
23
口口口口 |①---|
口口口口 |----|
①口③② |②---|
口口口口 |③---|
24
口口口口 |①---|
口口口口 |----|
口口口口 |②---|
①口③② |③---|
25
口口口口 |①---|
口②②口 |----|
口①①口 |②---|
口口口口 |----|
26
①②③口 |----|
口口口口 |①---|
口口口口 |②---|
口口口口 |③---|
27
口口口口 |----|
口口口口 |①---|
口③②① |②---|
口口口口 |③---|
28
口口口口 |----|
①②③口 |①---|
口口口口 |②---|
口口口口 |③---|
29
口②②口 |①---|
口口口口 |----|
口①①口 |②---|
口口口口 |----|
30
口口口口 |----|
口③②① |①---|
口口口口 |②---|
口口口口 |③---|
31
口口口口 |----|
口口口口 |①---|
口口口口 |②---|
①②③口 |③---|
32
口口口口 |----|
口口口口 |①---|
口③②① |②---|
口口口口 |③---|
33
口口口口 |①---|
口②②口 |----|
口口口口 |②---|
口①①口 |----|
34
①口②口 |①---|
口口口口 |----|
口口口口 |②---|
口口口口 |----|
35
口①口口 |①---|
口②口口 |②---|
口③口口 |③---|
口口口口 |----|
36
口口口口 |①---|
口口口口 |----|
②②口口 |②---|
口口①① |----|
37
口口口口 |①---|
口口①① |----|
口口口口 |----|
口口口口 |----|
38
口②口① |①---|
口口口口 |----|
口口口口 |②---|
口口口口 |----|
39
口口①口 |①---|
口口②口 |②---|
口口③口 |③---|
④④口口 |④---|
40
②②口口 |①---|
口口口口 |----|
①①口口 |②---|
口口口口 |----|
41
口口口口 |①---|
口①①口 |----|
口口口口 |②---|
口②②口 |----|
42
口口口口 |①---|
口口口口 |②---|
①③②口 |③---|
口口口口 |----|
43
口口②② |①---|
口口①① |----|
口口口口 |②---|
口口口口 |----|
44
口口口口 |①---|
口口口口 |②---|
口②③① |③---|
口口口口 |----|
45
②②口口 |①---|
①①口口 |----|
口口口口 |②---|
口口口口 |----|
46
口口口口 |①---|
②口口② |----|
口①①口 |②---|
口口口口 |----|
47
②③③② |①---|
口①①口 |----|
口口口口 |②---|
口口口口 |③---|
48
口口口口 |①---|
口①①口 |----|
口口口口 |②---|
口②②口 |----|
49
口口口口 |----|
口口口口 |----|
口口口口 |----|
口口口口 |----|
50
口口口口 |①---|
口口口口 |②---|
①③②口 |③---|
口口口口 |----|
51
口口②② |①---|
口口①① |----|
口口口口 |②---|
口口口口 |----|
52
口口口口 |①---|
口口口口 |②---|
口②③① |③---|
口口口口 |----|
53
②②口口 |①---|
①①口口 |----|
口口口口 |②---|
口口口口 |----|
54
口口口口 |①---|
②口口② |----|
口①①口 |②---|
口口口口 |----|
55
②③③② |①---|
口①①口 |----|
口口口口 |②---|
口口口口 |③---|
56
口⑦⑦口 |①-②-|
口⑥①口 |③-④-|
口②⑤口 |⑤-⑥-|
口④③口 |⑦---|
57
口⑤⑤口 |①-②-|
口④①口 |③-④-|
口②③口 |⑤---|
口口口口 |----|


不确定度: 0

最終更新:2013年03月23日 16:13