スマイル一番 イイ♀
アンティック-珈琲店-

ADVANCED

Level: 6
BPM: 153
Notes: 451

1
口口口口 |----|
口口口口 |----|
口口口口 |----|
口口口口 |----|
2
④③②① |①---|
口口口口 |②---|
⑤口口⑤ |③--④|
①②③④ |--⑤-|
3
③口②① |--①-|
④⑤⑤④ |②---|
口⑤⑤口 |③--④|
①②口③ |--⑤-|
4
④③②① |①---|
⑤口口⑤ |②---|
口口口口 |③--④|
①②③④ |--⑤-|
5
③口②① |--①-|
④⑤⑤④ |②---|
口⑤⑤口 |③--④|
①②口③ |--⑤-|
6
②口口① |①---|
④⑤⑤③ |②---|
③口口④ |③--④|
①口口② |--⑤-|
7
②口口① |--①-|
④⑤⑤④ |②---|
④③③④ |③--④|
①口口② |--⑤-|
8
②口口① |①---|
④口口③ |②---|
③口口④ |③--④|
①⑤⑤② |--⑤-|
9
口口口口 |①-②-|
口①②口 |③-④-|
⑤③④⑥ |⑤-⑥-|
口⑦⑧口 |⑦-⑧-|
10
①口口口 |①-②-|
②⑤口⑤ |③-④-|
口③口④ |⑤--⑥|
口口⑥⑦ |--⑦-|
11
口口③口 |①--②|
④④口② |--③-|
口口①口 |④---|
口口口口 |----|
12
口口口① |①-②-|
⑤口⑤② |③-④-|
④口③口 |⑤--⑥|
⑦⑥口口 |--⑦-|
13
口③口口 |①--②|
②口口口 |--③-|
口①口口
口口口口

口口口口
口口④④
⑤⑥口口 |④---|
口口口口 |--⑤⑥|
14
口口口口 |①---|
口④③② |--②③|
口口①口 |④---|
⑤口口口 |--⑤-|
15
口口③口 |①---|
口④口口 |②-③-|
口口⑤口 |④---|
口①口② |⑤---|
16
①⑤④⑧ |①-②-|
①⑤④⑧ |③-④-|
⑦③⑥② |⑤-⑥-|
⑦③⑥② |⑦-⑧-|
17
口⑤⑤口 |①-②-|
①⑤⑤口 |③-④-|
口口口② |⑤---|
口③④口 |----|
18
④③②① |①---|
口口口口 |②---|
⑤口口⑤ |③--④|
①②③④ |--⑤-|
19
③口②① |--①-|
④⑤⑤④ |②---|
口⑤⑤口 |③--④|
①②口③ |--⑤-|
20
④③②① |①---|
⑤口口⑤ |②---|
口口口口 |③--④|
①②③④ |--⑤-|
21
③口②① |--①-|
⑤⑦⑦⑥ |②-③-|
口⑦⑦口 |④-⑤-|
①②口④ |⑥-⑦-|
22
②口口① |①---|
④⑤⑤③ |②---|
③口口④ |③--④|
①口口② |--⑤-|
23
②口口① |--①-|
④⑤⑤④ |②---|
④③③④ |③--④|
①口口② |--⑤-|
24
②口口① |①---|
④口口③ |②---|
③口口④ |③--④|
①⑤⑤② |--⑤-|
25
口口口口 |①--②|
口①②口 |--③-|
④③③⑤ |④-⑤-|
口⑥⑦口 |⑥-⑦-|
26
①②③口 |--①②|
口口口④ |③-④-|
口口口口
口口口口

⑧口口口
⑦口口口
⑥口口口 |⑤-⑥-|
⑤口口口 |⑦-⑧-|
27
口口口⑤ |--①-|
口口口⑥ |②-③-|
④口口⑦ |④-⑤-|
口③②① |⑥-⑦-|
28
口口口口 |--①-|
③口口口 |②-③-|
②口口口
①口口口

口④口口
口口口口
口口口口 |④-⑤⑥|
⑦口⑥⑤ |--⑦-|
29
口口口① |①-②-|
⑤⑥⑦② |③-④-|
口⑧⑧③ |⑤-⑥-|
口口④口 |⑦-⑧-|
30
①②③口 |--①②|
口口口④ |③-④-|
口口口口
口口口口

⑧口口口
⑦口口口
⑥口口口 |⑤-⑥⑦|
口⑤口口 |--⑧-|
31
口口口⑥ |--①②|
⑤口口⑦ |③-④-|
④口口⑧ |⑤-⑥-|
口③②① |⑦-⑧-|
32
口口口口 |--①-|
③口口口 |②-③-|
②口口口
①口口口

口④口口
口口口口
⑧口口口 |④-⑤⑥|
⑦口⑥⑤ |--⑦⑧|
33
口口口① |①-②-|
口口②口 |③-④-|
口④口③ |⑤---|
口口⑤口 |----|
34
口①①口 |①---|
口③②口 |②-③-|
④⑤⑥口 |--④-|
口口口口 |⑤-⑥-|
35
口口③③ |①---|
口口②② |②---|
口口口口 |③---|
④口①① |④---|
36
②②口口 |①---|
①口③口 |--②-|
口口口口 |----|
口口口口 |--③-|
37
口口口口 |①-②-|
口②口口 |----|
口①②口 |----|
口口口口 |----|
38
口②口⑤ |--①-|
①口③⑥ |②-③-|
口④口⑦ |④-⑤-|
口口口口 |⑥-⑦-|
39
口口口口 |①---|
③③口口 |②---|
②②④④ |③---|
①①口口 |④---|
40
②③③② |①---|
口口①① |--②-|
口口口口 |③---|
口口口口 |----|
41
口口口口 |①--②|
①④①④ |--③-|
口口口口 |④---|
③②③② |----|
42
①口口口 |①-②-|
②⑤口⑤ |③-④-|
口③口④ |⑤--⑥|
口口⑥⑦ |--⑦-|
43
口口③口 |①--②|
④④口② |--③-|
口口①口 |④---|
口口口口 |----|
44
口口口① |①-②-|
⑤口⑤② |③-④-|
④口③口 |⑤--⑥|
⑦⑥口口 |--⑦-|
45
口③口口 |①--②|
②口口口 |--③-|
口①口口
口口口口

口口口口
口口④④
⑤⑥口口 |④---|
口口口口 |--⑤⑥|
46
口口口口 |①---|
口④③② |--②③|
口口①口 |④---|
⑤⑥口口 |--⑤⑥|
47
口口③口 |①---|
口口口口 |②-③-|
口口口口
口口①②

口口口口
口④口口
⑥口⑤口 |④-⑤-|
口口⑦口 |⑥-⑦-|
48
①口③口 |①---|
①口③口 |--②-|
口③口② |③---|
口③口② |----|
49
口口口口 |----|
口口口口 |----|
口口口口 |----|
口口口口 |----|
50
①口口口 |①-②-|
②⑤口⑤ |③-④-|
口③口④ |⑤--⑥|
口口⑥⑦ |--⑦-|
51
口口③口 |①--②|
④④口② |--③-|
口口①口 |④---|
口口口口 |----|
52
口口口① |①-②-|
⑤口⑤② |③-④-|
④口③口 |⑤--⑥|
⑦⑥口口 |--⑦-|
53
口③口口 |①--②|
②口口口 |--③-|
口①口口
口口口口

口口口口
口口④④
⑤⑥口口 |④---|
口口口口 |--⑤⑥|
54
口口口口 |①---|
口④③② |--②③|
口口①口 |④---|
⑤口口口 |--⑤-|
55
口口③口 |①---|
口④口口 |②-③-|
口口⑤口 |④---|
口①口② |⑤---|
56
①⑤④⑧ |①-②-|
①⑤④⑧ |③-④-|
⑦③⑥② |⑤-⑥-|
⑦③⑥② |⑦-⑧-|
57
口⑤⑤口 |①-②-|
①⑤⑤口 |③-④-|
口口口② |⑤---|
口③④口 |----|


不确定度: 0

最終更新:2013年03月23日 16:12