Runner
爆風スランプ

BASIC

Level: 2
BPM: 125
Notes: 200

1
口口口口 |----|
口口口口 |----|
口口口口 |----|
口口口口 |----|
2
口①①口 |①---|
口口口口 |----|
口口口口 |----|
口口口口 |----|
3
口口口口 |①---|
口①①口 |----|
口口口口 |----|
口口口口 |----|
4
口口口口 |①---|
口口口口 |----|
口①①口 |----|
口口口口 |----|
5
口③口口 |①---|
②口口② |----|
①口口① |②---|
口口口口 |③---|
6
口口①口 |①---|
口②③口 |②---|
口口口口 |③---|
口口口口 |----|
7
口口口口 |①---|
①口口① |②---|
②口口② |③---|
③口口③ |----|
8
口口口口 |①---|
口口口口 |②---|
口④③口 |③---|
口②①口 |④---|
9
③④口③ |①---|
②口口② |②---|
①口口① |③---|
口口口口 |④---|
10
口口①口 |①---|
口②③口 |②---|
口口口口 |③---|
口口口口 |----|
11
口口口口 |①---|
①口口① |②---|
②口口② |③---|
③口口③ |----|
12
口口口口 |①---|
口口口口 |②---|
口④③口 |③---|
口②①口 |④---|
13
③口口③ |①---|
②口口② |②---|
①口口① |③---|
口口口口 |----|
14
口口口口 |①---|
口①口② |----|
口口口口 |②---|
口口口口 |----|
15
口口口口 |①---|
口口口口 |②---|
④③②① |③---|
口口口口 |④---|
16
口口口口 |①---|
①口②口 |----|
口口口口 |②---|
口口口口 |----|
17
④③②① |①---|
口口口口 |②---|
口口口口 |③---|
口口口口 |④---|
18
口口口口 |①---|
口①口② |----|
口口口口 |②---|
口口口口 |----|
19
口口口口 |①---|
口口口口 |②---|
口③②① |③---|
口口口口 |----|
20
口口口口 |①---|
口①①口 |----|
口口口口 |----|
口口口口 |----|
21
口口口口 |----|
口口口口 |----|
口口口口 |----|
口口口口 |----|
22
口口口口 |①---|
口①口② |----|
口口口口 |②---|
口口口口 |----|
23
口口口口 |①---|
口口口口 |②---|
④③②① |③---|
口口口口 |④---|
24
口口口口 |①---|
①口②口 |----|
口口口口 |②---|
口口口口 |----|
25
④③②① |①---|
口口口口 |②---|
口口口口 |③---|
口口口口 |④---|
26
口口口口 |①---|
口①口② |----|
口口口口 |②---|
口口口口 |----|
27
口口口口 |①---|
口口口口 |②---|
口③②① |③---|
口口口口 |----|
28
口口口口 |①---|
口①①口 |----|
口口口口 |----|
口口口口 |----|
29
口口口口 |----|
口口口口 |----|
口口口口 |----|
口口口口 |----|
30
口④口口 |①---|
口③口口 |②---|
口②口口 |③---|
口①口口 |④---|
31
口口①口 |①---|
口口口口 |----|
口②口口 |②---|
口口口口 |----|
32
口口④口 |①---|
口口③口 |②---|
口口②口 |③---|
口口①口 |④---|
33
口①口口 |①---|
口②口口 |②---|
口③口口 |③---|
口④口口 |④---|
34
口口口口 |①---|
②口口口 |----|
口口口口 |②---|
①口口口 |----|
35
口①口口 |①---|
口口②口 |----|
口口口口 |②---|
口口口口 |----|
36
口口口口 |①---|
口口口口 |----|
口①①口 |----|
口口口口 |----|
37
口口口口 |----|
口口口口 |----|
口口口口 |----|
口口①口 |①---|
38
口③口口 |①---|
口口②口 |②---|
口①口口 |③---|
口口口口 |----|
39
①口口① |①---|
②口口② |②---|
③口口③ |③---|
口口口口 |----|
40
口口④口 |①---|
口③口口 |②---|
口口②口 |③---|
口①口口 |④---|
41
①口口① |①---|
②口口② |②---|
③口口③ |③---|
口口④口 |④---|
42
口③口口 |①---|
口口②口 |②---|
口①口口 |③---|
口口口口 |----|
43
①口口① |①---|
②口口② |②---|
③口口③ |③---|
口口口口 |----|
44
口口④口 |①---|
口③口口 |②---|
口口②口 |③---|
口①口口 |④---|
45
①口口① |①---|
②口口② |②---|
③口口③ |③---|
口口④口 |④---|
46
口口口口 |①---|
口口口口 |②---|
口③②口 |③---|
口①口口 |----|
47
③口口③ |①---|
②口口② |②---|
①口口① |③---|
口口口口 |----|
48
口①②口 |①---|
口③④口 |②---|
口口口口 |③---|
口口口口 |④---|
49
口口口口 |①---|
①口口① |②---|
②口口② |③---|
③口④③ |④---|
50
口口口口 |①---|
口口口口 |②---|
口③②口 |③---|
口①口口 |----|
51
③口口③ |①---|
②口口② |②---|
①口口① |③---|
口口口口 |----|
52
口①②口 |①---|
口③④口 |②---|
口口口口 |③---|
口口口口 |④---|
53
口口口口 |①---|
①口口① |②---|
②口口② |③---|
③口口③ |----|
54
口口口口 |①---|
口口口口 |----|
口口口口 |----|
口①①口 |----|
55
口口口口 |①---|
口口口口 |----|
口①①口 |----|
口口口口 |----|
56
口口口口 |①---|
口①①口 |----|
口口口口 |----|
口口口口 |----|
57
口①②口 |--①-|
口③④口 |-②--|
口⑤口口 |③--④|
口口口口 |--⑤-|
58
口口口口 |①---|
口口口口 |----|
口口①口 |----|
口口口口 |----|


不确定度: 0

最終更新:2013年03月23日 16:05