B・M・W
SNAIL RAMP

BASIC

Level: 3
BPM: 194
Notes: 267

全程BPM在194附近飄忽不定
1
口口口口 |----|
口口口口 |----|
口口口口 |----|
口口口口 |----|
2
口口口口 |①---|
口①口口 |----|
口口口口 |----|
口口口口 |----|
3
口口口口 |①---|
口口口口 |----|
口口①口 |----|
口口口口 |----|
4
口口口口 |①---|
口口口口 |----|
口①口口 |----|
口口口口 |----|
5
口口口口 |①---|
口口①口 |----|
口口口口 |----|
口口口口 |----|
6
口口口口 |①---|
口①口口 |----|
口口②口 |②---|
口口口口 |----|
7
口口口口 |①---|
口口②口 |----|
口①口口 |②---|
口口口口 |----|
8
口口口口 |①---|
口①④口 |②---|
口③②口 |③---|
口口口口 |④---|
9
口口口口 |①---|
①口口① |--②-|
②口口② |----|
口口口口 |----|
10
口①口口 |①---|
③口④口 |②---|
口②口口 |③---|
口口口口 |④---|
11
口口口口 |①---|
口①口口 |----|
口口口口 |----|
口口口口 |----|
12
口口口口 |①---|
口口口口 |②---|
①②③④ |③---|
口口口口 |④---|
13
口口口口 |①---|
口①①口 |----|
口口口口 |----|
口口口口 |----|
14
口口①口 |①---|
口②口④ |②---|
口口③口 |③---|
口口口口 |④---|
15
口口口口 |①---|
口口①口 |----|
口口口口 |②---|
口②②口 |----|
16
②口口② |①---|
口①①口 |②---|
口口口口 |----|
口口口口 |----|
17
口④口口 |①---|
①口②口 |②---|
口③口口 |③---|
口口口口 |④---|
18
口口口口 |①---|
口口口口 |----|
口口①口 |②---|
口②口口 |----|
19
口口口口 |①---|
口③③口 |②---|
口②口口 |③---|
口口①口 |----|
20
口①②口 |①---|
口口口口 |----|
口口口口 |②---|
口口口口 |----|
21
口口口口 |①---|
③口口③ |②---|
②口口② |③---|
①口口① |----|
22
口口口口 |①---|
③口口③ |②---|
②口口② |③---|
①口口① |----|
23
口①口口 |①---|
口口②口 |②---|
口③口口 |③---|
口口④口 |④---|
24
口②①口 |①---|
口口口口 |----|
口口口口 |②---|
口口口口 |----|
25
③口口③ |①---|
②口口② |②---|
①口口① |③---|
口口口口 |----|
26
④口口④ |①---|
③口口③ |②---|
②口口② |③---|
①口口① |④---|
27
口①口口 |①---|
口口②口 |②---|
④③③口 |③---|
口口口口 |④---|
28
口口口口 |①---|
②③⑤④ |②-③-|
口口口① |--④-|
口口口口 |⑤---|
29
①②②① |----|
口口口口 |①---|
口口口口 |②---|
口口口口 |----|
30
口口口口 |①---|
口口①口 |----|
口②口口 |②---|
口口口口 |----|
31
口口③口 |①---|
口②口口 |②---|
④口①口 |③---|
口口口口 |④---|
32
口口口口 |①---|
②③⑤④ |②-③-|
口口口① |--④-|
口口口口 |⑤---|
33
①②②① |----|
口口口口 |①---|
口口口口 |②---|
口口口口 |----|
34
口口口口 |①---|
口口①口 |----|
口②口口 |②---|
口口口口 |----|
35
口口③口 |①---|
口②口口 |②---|
口口①口 |③---|
口口口口 |----|
36
口①口口 |①---|
③口④口 |②---|
口②口口 |③---|
口口口口 |④---|
37
口口③③ |①---|
口①口口 |②---|
口口②② |③---|
口口口口 |----|
38
口口口口 |①---|
口口口口 |②---|
①②③④ |③---|
口口口口 |④---|
39
口口口口 |①---|
口①①口 |----|
口口口口 |----|
口口口口 |----|
40
口口①口 |①---|
口②口④ |②---|
口口③口 |③---|
口口口口 |④---|
41
口口口口 |①---|
口口①口 |----|
口口口口 |②---|
口②②口 |----|
42
②口口② |①---|
口①①口 |②---|
口口口口 |----|
口口口口 |----|
43
口④口口 |①---|
①口②口 |②---|
口③口口 |③---|
口口口口 |④---|
44
口口口口 |①---|
口口口口 |----|
口口①口 |②---|
口②口口 |----|
45
口口口口 |①---|
口③③口 |②---|
口②口口 |③---|
口口①口 |----|
46
①②③④ |①---|
口口口口 |②---|
口口口口 |③---|
口口口口 |④---|
47
口口口口 |①---|
④③②① |②---|
口口口口 |③---|
口口口口 |④---|
48
口口口口 |①---|
口口口口 |----|
口①口口 |②---|
口口②口 |----|
49
口口口口 |①---|
口③③口 |②---|
口口②口 |③---|
口①口口 |----|
50
④③②① |①---|
口口口口 |②---|
口口口口 |③---|
口口口口 |④---|
51
口口口口 |①---|
口口①口 |②---|
口②口口 |③---|
口③③口 |----|
52
口口口口 |①---|
①口口① |----|
口口口口 |----|
口口口口 |----|
53
口口口口 |----|
口口口口 |----|
口口口口 |----|
口口口口 |----|
54
口口口口 |①---|
口①①口 |----|
口口口口 |----|
口口口口 |----|
55
口口口口 |----|
口口口口 |----|
口口口口 |----|
口口口口 |----|
56
口口口口 |①---|
口②口口 |----|
①口口① |②---|
口口口口 |----|
57
口口口口 |①---|
口口③口 |----|
口②①口 |②---|
口口口口 |③---|
58
口口口口 |①---|
口①口口 |----|
口口②口 |②---|
口口口口 |----|
59
口口口口 |①---|
口②②口 |②---|
口①口口 |----|
口口口口 |----|
60
口①口口 |①---|
③口④口 |②---|
口②口口 |③---|
口口口口 |④---|
61
口口③③ |①---|
口①口口 |②---|
口口②② |③---|
口口口口 |----|
62
口口口口 |①---|
口口口口 |②---|
①②③④ |③---|
口口口口 |④---|
63
口口口口 |①---|
口①①口 |----|
口口口口 |----|
口口口口 |----|
64
口口①口 |①---|
口②口④ |②---|
口口③口 |③---|
口口口口 |④---|
65
口口口口 |①---|
口口①口 |----|
口口口口 |②---|
口②②口 |----|
66
②口口② |①---|
口①①口 |②---|
口口口口 |----|
口口口口 |----|
67
口④口口 |①---|
①口②口 |②---|
口③口口 |③---|
口口口口 |④---|
68
口口口口 |①---|
口口口口 |----|
口口①口 |②---|
口②口口 |----|
69
口口口口 |①---|
口③③口 |②---|
口②口口 |③---|
口口①口 |----|
70
①②③④ |①---|
口口口口 |②---|
口口口口 |③---|
口口口口 |④---|
71
口口口口 |①---|
④③②① |②---|
口口口口 |③---|
口口口口 |④---|
72
口口口口 |①---|
口口口口 |----|
口①口口 |②---|
口口②口 |----|
73
口口口口 |①---|
口③③口 |②---|
口口②口 |③---|
口①口口 |----|
74
④③②① |①---|
口口口口 |②---|
口口口口 |③---|
口口口口 |④---|
75
口口口口 |①---|
口口①口 |②---|
口②口口 |③---|
口③③口 |----|
76
①口口口 |①---|
口②口口 |----|
口口口口 |②---|
口口口口 |----|
77
口②口口 |①---|
①③口口 |②---|
口口口口 |③---|
口口口口 |----|
78
口口口口 |①---|
口口口口 |----|
口口①口 |②---|
口口口② |----|
79
口口口口 |①---|
口口口口 |②---|
口口③② |③---|
口口①口 |----|
80
口口口① |①---|
口口②口 |----|
口口口口 |②---|
口口口口 |----|
81
口口②口 |①---|
口口③① |②---|
口口口口 |③---|
口口口口 |----|
82
口口口口 |①---|
口口口口 |----|
口①口口 |②---|
②口口口 |----|
83
口口口口 |①---|
口口口口 |②---|
②③口口 |③---|
口①口口 |----|


不确定度: 0

最終更新:2013年03月23日 16:02