B・M・W
SNAIL RAMP

ADVANCED

Level: 7
BPM: 194
Notes: 498

全程BPM在194附近飄忽不定
1
口口口口 |----|
口口口口 |----|
口口口口 |----|
口口①① |①---|
2
口口口口 |①---|
口口口口 |②-③-|
①①③② |--④-|
⑤口⑤④ |--⑤-|
3
④④口口 |①---|
口②⑤③ |②-③-|
口①口口 |--④-|
口口口口 |--⑤-|
4
口口口口 |①---|
口口口口 |②-③-|
①①③② |--④-|
⑤口⑤④ |--⑤-|
5
④④口口 |①---|
口②⑤③ |②-③-|
口①口口 |--④-|
口口口口 |--⑤-|
6
口口口口 |①---|
口口口口 |②-③-|
①①③② |--④-|
⑤口⑤④ |--⑤-|
7
④④口口 |①---|
口②⑤③ |②-③-|
口口口口 |--④-|
口①口口 |--⑤-|
8
口口口口 |①---|
口口口口 |②-③-|
①①③② |--④-|
⑤口⑤④ |--⑤-|
9
口口口口 |①---|
③①③口 |②-③-|
口②口口 |----|
口口口口 |----|
10
⑥口口口 |①-②-|
口④⑤⑦ |③-④-|
②口③① |--⑤-|
口口口口 |⑥-⑦-|
11
口口口口 |----|
口③口口 |----|
口②口口 |--①-|
口①口口 |②-③-|
12
口①②② |①---|
口⑤④③ |②---|
⑥口⑥口 |③-④-|
口口口口 |⑤-⑥-|
13
口口口口 |----|
口口口口 |--①-|
口口口口 |--②-|
①①②② |----|
14
⑥口口口 |①-②-|
口④⑤⑦ |③-④-|
②口③① |--⑤-|
口口口口 |⑥-⑦-|
15
口③口口 |----|
口②口口 |--①-|
口④口口 |--②-|
口①口口 |③-④-|
16
口口口口 |①---|
口口②② |②---|
口口口口 |----|
口口①① |----|
17
口口口口 |①-②-|
口⑥④口 |③-④-|
口③②① |--⑤-|
口口⑤口 |⑥---|
18
⑤口口口 |①-②-|
③口④④ |③---|
口②口口 |④---|
①①口口 |--⑤-|
19
口口②① |--①-|
口口口口 |②---|
口③③口 |③-④-|
④⑤⑥口 |⑤-⑥-|
20
口口口口 |①---|
①②口口 |②---|
⑤口③④ |③-④-|
口口口口 |--⑤-|
21
口口口口 |①-②-|
⑥口⑤④ |③-④-|
口①口口 |⑤---|
口口②③ |--⑥-|
22
口⑥⑤④ |①-②-|
⑦①口口 |③-④-|
口口②③ |⑤-⑥-|
口口口口 |--⑦-|
23
口口④④ |①---|
口口①① |②---|
口口③③ |③---|
口口②② |④---|
24
口口口口 |①---|
①②口口 |②---|
⑤口③④ |③-④-|
口口口口 |--⑤-|
25
口口口口 |①-②-|
⑥口⑤④ |③-④-|
口①口口 |⑤---|
口口②③ |--⑥-|
26
口⑤口④ |①-②-|
⑥①口口 |③-④-|
口口②③ |--⑤-|
口口口口 |--⑥-|
27
④口口口 |--①-|
口口①① |②---|
口⑤③③ |③-④-|
⑥口②② |⑤-⑥-|
28
口③口口 |①---|
②口口口 |②-③-|
⑤④口口 |--④-|
口①口口 |⑤---|
29
口口②② |----|
口口口口 |①---|
口口口③ |②---|
口口①① |--③-|
30
口口口⑥ |①-②-|
口口①② |③-④-|
口口③口 |--⑤-|
口口⑤④ |--⑥-|
31
口口①口 |--①-|
口口口② |②-③-|
口④③口 |----|
⑤口口口 |④-⑤-|
32
口③口口 |①---|
②口口口 |②-③-|
⑤④口口 |--④-|
口①口口 |⑤---|
33
口口②② |----|
口口口口 |①---|
口口口③ |②---|
口口①① |--③-|
34
口口口⑥ |①-②-|
口口①② |③-④-|
口口③口 |--⑤-|
口口⑤④ |--⑥-|
35
口口①口 |--①-|
口口口② |②-③-|
口口③口 |④---|
口口口④ |----|
36
⑥口口口 |①-②-|
口④⑤⑦ |③-④-|
②口③① |--⑤-|
口口口口 |⑥-⑦-|
37
口口口口 |----|
口⑤口口 |①---|
②④口② |②-③-|
①③口① |④-⑤-|
38
①①②② |①---|
口⑤④③ |②---|
⑥口⑥口 |③-④-|
口口口口 |⑤-⑥-|
39
口口口口 |----|
口口口口 |--①-|
口口口口 |--②-|
①①②② |----|
40
⑥口口口 |①-②-|
口④⑤⑦ |③-④-|
②口③① |--⑤-|
口口口口 |⑥-⑦-|
41
口③口口 |----|
口②口口 |--①-|
口④口口 |--②-|
口①口口 |③-④-|
42
口口口口 |①---|
口口②② |②---|
口口口口 |----|
口口①① |----|
43
口口口口 |①-②-|
口⑥④口 |③-④-|
口③②① |--⑤-|
口口⑤口 |⑥---|
44
口口③③ |①---|
②口口口 |②---|
口②口口 |③---|
①①口口 |----|
45
③③口口 |①---|
口口口② |②---|
口口②口 |③---|
口口①① |----|
46
口口口口 |①---|
口①口口 |--②-|
③口口② |--③-|
口口④口 |--④-|
47
口①①口 |①---|
②②口口 |②---|
③③口口 |③---|
口口④④ |④---|
48
口口①① |①---|
口口口② |②---|
口口②口 |③---|
③③口口 |----|
49
①①口口 |①---|
②口口口 |②---|
口②口口 |③---|
口口③③ |----|
50
口口口口 |①-②-|
④③口⑤ |③-④-|
⑥②口⑥ |--⑤-|
口①口口 |--⑥-|
51
口①①口 |--①-|
口②②口 |②---|
口口口口 |③---|
口③③口 |----|
52
口口口口 |①---|
口口口口 |②-③-|
①口②口 |--④-|
口④⑤③ |--⑤-|
53
①②口口 |--①-|
⑤⑥③④ |②-③-|
口口口口 |④-⑤-|
口口口口 |⑥---|
54
口口口口 |①---|
口口口口 |②-③-|
口②口① |--④-|
③⑤④口 |--⑤-|
55
口口②① |--①-|
④③口口 |②-③-|
口口⑥⑤ |④-⑤-|
口口口口 |⑥---|
56
④③口口 |①---|
口口②② |--②-|
口口口口 |--③-|
①①口口 |④---|
57
口口②① |--①-|
④③口口 |②-③-|
口口⑥⑤ |④-⑤-|
口口口口 |⑥---|
58
口口口口 |①---|
口口①① |--②-|
②②口口 |----|
口口③③ |③---|
59
①①①① |----|
口口口口 |①---|
口口口口 |----|
口口口口 |----|
60
⑥口口口 |①-②-|
口④⑤⑦ |③-④-|
②口③① |--⑤-|
口口口口 |⑥-⑦-|
61
口口口口 |----|
口⑤口口 |①---|
②④口② |②-③-|
①③口① |④-⑤-|
62
①①②② |①---|
口⑤④③ |②---|
⑥口⑥口 |③-④-|
口口口口 |⑤-⑥-|
63
口口口口 |----|
口口口口 |--①-|
口口口口 |--②-|
①①②② |----|
64
⑥口口口 |①-②-|
口④⑤⑦ |③-④-|
②口③① |--⑤-|
口口口口 |⑥-⑦-|
65
口③口口 |----|
口②口口 |--①-|
口④口口 |--②-|
口①口口 |③-④-|
66
口口口口 |①---|
口口②② |②---|
口口口口 |----|
口口①① |----|
67
口口口口 |①-②-|
口⑥④口 |③-④-|
口③②① |--⑤-|
口口⑤口 |⑥---|
68
口口③③ |①---|
②口口口 |②---|
口②口口 |③---|
①①口口 |----|
69
③③口口 |①---|
口口口② |②---|
口口②口 |③---|
口口①① |----|
70
口口口口 |①---|
口①口口 |--②-|
③口口② |--③-|
口口④口 |--④-|
71
口①①口 |①---|
②②口口 |②---|
③③口口 |③---|
口口④④ |④---|
72
口口①① |①---|
口口口② |②---|
口口②口 |③---|
③③口口 |----|
73
①①口口 |①---|
②口口口 |②---|
口②口口 |③---|
口口③③ |----|
74
口口口口 |①-②-|
④③口⑤ |③-④-|
⑥②口⑥ |--⑤-|
口①口口 |--⑥-|
75
口①①口 |--①-|
口②②口 |②---|
口口口口 |③---|
口③③口 |----|
76
①③②④ |①-②-|
⑥⑤⑤⑥ |③-④-|
口口口口 |--⑤-|
口口口口 |--⑥-|
77
口口口口 |--①-|
口口口口 |--②-|
口①①口 |③-④-|
②③⑤④ |⑤---|
78
口口口口 |①-②-|
口口口⑥ |③-④-|
①③②④ |--⑤-|
⑥⑤⑤口 |--⑥-|
79
口口口口 |--①-|
①③③口 |②---|
②口口② |③---|
口口口① |----|
80
①③②④ |①-②-|
⑥⑤⑤⑥ |③-④-|
口口口口 |--⑤-|
口口口口 |--⑥-|
81
口口口口 |--①-|
口口口口 |--②-|
口①①口 |③-④-|
②③⑤④ |⑤---|
82
口口口口 |①-②-|
口口口⑥ |③-④-|
①③②④ |--⑤-|
⑥⑤⑤口 |--⑥-|
83
③③③③ |--①-|
①口口口 |②---|
②口口② |③---|
口口口① |----|


不确定度: 0

最終更新:2013年03月23日 16:01