SHINE×SHINE×SHINE×SHINE
エイプリルズ

BASIC

Level: 3
BPM: 138
Notes: 182

1
口口口口 |----|
口口口口 |----|
口口口口 |----|
口口口口 |----|
2
口口口口 |①--②|
①②口口 |--③-|
口口②③ |----|
口口口口 |----|
3
口口②① |①---|
口口④③ |②---|
口口口口 |③---|
口口口口 |④---|
4
口口口口 |①---|
口口口口 |②---|
②①口口 |③---|
④③口口 |④---|
5
①口口口 |①---|
口②口口 |②---|
口口③口 |③---|
口口口④ |④---|
6
口口口口 |①--②|
①②口口 |--③-|
口口②③ |----|
口口口口 |----|
7
口口口口 |----|
口口①② |①---|
②①口口 |②---|
口口口口 |----|
8
口口口口 |①---|
口①口口 |----|
口口①口 |----|
口口口口 |----|
9
口口口口 |①---|
①口口③ |----|
②口口① |②---|
口口口口 |③---|
10
口口口口 |①---|
口口①口 |----|
口①口口 |----|
口口口口 |----|
11
口口口口 |①---|
口①口口 |----|
口口①口 |----|
口口口口 |----|
12
口口口口 |①---|
口口①口 |----|
口①口口 |----|
口口口口 |----|
13
口口口口 |①---|
口①口口 |----|
口口①口 |----|
口口口口 |----|
14
口口口口 |①---|
口口①① |----|
①①口口 |----|
口口口口 |----|
15
口口口口 |①---|
口①口口 |----|
口口①口 |----|
口口口口 |----|
16
口口口口 |①---|
口口①口 |----|
口①口口 |----|
口口口口 |----|
17
口口口口 |①---|
口①口口 |----|
口口①口 |----|
口口口口 |----|
18
口口口口 |①---|
①口口② |----|
口口口口 |②---|
口口口口 |----|
19
口口口口 |①---|
口口口口 |----|
②口口① |②---|
口口口口 |----|
20
口口口口 |①---|
口②②口 |②---|
口①①口 |----|
口口口口 |----|
21
口口口口 |----|
口①②口 |①---|
口口口口 |②---|
口口口口 |----|
22
口口口口 |①---|
②口口② |----|
口①①口 |②---|
口口口口 |----|
23
口口口口 |①---|
②口口② |----|
口①①口 |②---|
口口口口 |----|
24
口口口口 |①---|
口口口口 |②---|
①口口② |----|
口口口口 |----|
25
口口口口 |----|
口口口口 |----|
口口口口 |----|
口口口口 |----|
26
口口口口 |①---|
①口口② |----|
口口口口 |②---|
口口口口 |----|
27
口口口口 |①---|
口口口口 |----|
①口口② |②---|
口口口口 |----|
28
口口口口 |①---|
口②②口 |②---|
口①①口 |----|
口口口口 |----|
29
口口口口 |----|
①口③口 |①---|
口②口口 |②---|
口口口口 |③---|
30
口口口口 |①---|
口③口口 |②---|
口口②① |③---|
口口口口 |----|
31
口口口口 |----|
①口口口 |①---|
口口口② |②---|
口口口口 |----|
32
口口口口 |①---|
口口②口 |②---|
口①口口 |----|
口口口口 |----|
33
口口①口 |----|
口口口口 |----|
口口口口 |----|
口口口口 |①---|
34
口口口口 |①---|
口口①口 |----|
口口口口 |----|
口口口口 |----|
35
口口口口 |①---|
口口口口 |----|
①②口口 |②---|
口口口口 |----|
36
口②口口 |①---|
口①口口 |②---|
口口口口 |----|
口口口口 |----|
37
口口①口 |①---|
口口②口 |----|
口口口口 |②---|
口口口口 |----|
38
口口口口 |①---|
口口口口 |----|
口口①② |②---|
口口口口 |----|
39
口口口口 |①---|
口②②口 |----|
口①①口 |②---|
口口口口 |----|
40
②口口② |①---|
①口口① |----|
口口口口 |②---|
口口口口 |----|
41
口口口口 |①---|
口③④口 |②---|
口①②口 |③---|
口口口口 |④---|
42
口口口口 |①--②|
①②口口 |--③-|
口口②③ |----|
口口口口 |----|
43
口口②② |①---|
口口①① |----|
①①口口 |②---|
②②口口 |----|
44
口口口口 |①--②|
①②口口 |--③-|
口口②③ |----|
口口口口 |----|
45
口口②② |①---|
口口①① |----|
①①口口 |②---|
②②口口 |----|
46
②①口口 |①---|
口口口口 |----|
口口口口 |②---|
口口①② |----|
47
口口口口 |----|
①口口口 |①---|
口②③④ |②--③|
口口口口 |--④-|
48
口口口口 |----|
口①口口 |----|
口口口口 |①---|
口口口口 |----|
49
口口口口 |①---|
口口①口 |----|
口口口口 |----|
口口口口 |----|
50
口口口口 |①--②|
①②口口 |--③-|
口口②③ |----|
口口口口 |----|
51
口口②② |①---|
口口①① |----|
①①口口 |②---|
②②口口 |----|
52
口口口口 |①--②|
①②口口 |--③-|
口口②③ |----|
口口口口 |----|
53
口口②② |①---|
口口①① |----|
①①口口 |②---|
②②口口 |----|
54
②①口口 |①---|
口口口口 |----|
口口口口 |②---|
口口①② |----|
55
口口口口 |①---|
①口口② |----|
②口口① |②---|
口口口口 |----|
56
口口②① |①---|
口口口口 |----|
口口口口 |②---|
①②口口 |----|
57
②①口口 |①---|
口口口口 |----|
口口口口 |②---|
口口①② |----|


不确定度: 0

最終更新:2013年03月23日 15:39