元気でやってるのかい?
イルリメ

BASIC

Level: 3
BPM: 165
Notes: 266

1
口口口口 |----|
口口口口 |----|
口口口口 |----|
口口口口 |----|
2
口口口口 |①---|
口口口口 |----|
口①①口 |----|
口口口口 |----|
3
口口口口 |①---|
口①①口 |----|
口口口口 |----|
口口口口 |----|
4
口口口口 |①---|
口口口口 |----|
口①①口 |----|
口口口口 |----|
5
口③④口 |①---|
口①②口 |②---|
口口口口 |③---|
口口口口 |④---|
6
口口口口 |①---|
③②①口 |②---|
口口口口 |③---|
口口口口 |----|
7
口口口口 |①---|
口口口口 |②---|
口①②③ |③---|
口口口口 |----|
8
口口口口 |①---|
口口口口 |②---|
口④③口 |③---|
口②①口 |④---|
9
③口口口 |--①-|
②口口口 |--②-|
①口口口 |--③-|
口口口口 |----|
10
口口口口 |①---|
口①②③ |②---|
口口口口 |③---|
口口口口 |----|
11
口口口口 |①---|
口口口口 |②---|
③②①口 |③---|
口口口口 |----|
12
口口口口 |①---|
口口口口 |②---|
口③④口 |③---|
口①②口 |④---|
13
口口口③ |--①-|
口口口② |--②-|
口口口① |--③-|
口口口口 |----|
14
口①②口 |①---|
口③④口 |②---|
口口口口 |③---|
口口口口 |④---|
15
口口口口 |--①-|
口口口① |--②-|
口口口② |--③-|
口口口③ |----|
16
口口口口 |①---|
口口口口 |②---|
口④③口 |③---|
口②①口 |④---|
17
口口口口 |①---|
口①②③ |②---|
口口口④ |③---|
口口口口 |④---|
18
口口口口 |①---|
口口口口 |②---|
③②①口 |③---|
④口口口 |④---|
19
口口口口 |①---|
口口口口 |②---|
口③④口 |③---|
口①②口 |④---|
20
口口口③ |--①-|
口口口② |--②-|
口口口① |--③-|
口口口口 |----|
21
口口口口 |①---|
③②①口 |②---|
④口口口 |③---|
口口口口 |④---|
22
口口口口 |①---|
口口口口 |②---|
口①②③ |③---|
口口口④ |④---|
23
口口口口 |①---|
口口口口 |②---|
口④③口 |③---|
口②①口 |④---|
24
口④③口 |①---|
口②①口 |②---|
口口口口 |③---|
口口口口 |④---|
25
口口口口 |①---|
口②①口 |②---|
口④③口 |③---|
口口口口 |④---|
26
口口口口 |①---|
口口口口 |②---|
口④③口 |③---|
口②①口 |④---|
27
③④④③ |①---|
②口口② |②---|
①口口① |③---|
口口口口 |④---|
28
口口口口 |①---|
口①口口 |----|
口口口口 |----|
口口口口 |----|
29
口口口口 |①---|
口口口口 |----|
口口①口 |----|
口口口口 |----|
30
口口口口 |①---|
口口口口 |----|
口口口口 |----|
口①口口 |----|
31
口口口口 |①---|
口口口口 |----|
口口口口 |----|
口口①口 |----|
32
口口口口 |①---|
口口口口 |----|
口口①口 |----|
口口口口 |----|
33
口口口口 |①---|
口①口口 |----|
口口口口 |----|
口口口口 |----|
34
口①①口 |①---|
口②②口 |----|
口口口口 |②---|
口口口口 |----|
35
口口口口 |①---|
口②口① |----|
口口口口 |②---|
口口口口 |----|
36
口口口口 |①---|
口口口口 |②---|
①②③④ |③---|
口口口口 |④---|
37
口口口口 |①---|
口口口口 |----|
口口口口 |②---|
口②口① |----|
38
口口口口 |①---|
口口口口 |②---|
①②③④ |③---|
口口口口 |④---|
39
口口口口 |①---|
口②口① |----|
口口口口 |②---|
口口口口 |----|
40
口口口口 |①---|
口口口口 |②---|
口①②③ |③---|
口口口口 |----|
41
口口口口 |①---|
口口口口 |----|
口口口口 |②---|
口②口① |----|
42
口口口口 |①---|
口口口口 |②---|
口①②③ |③---|
口口口口 |----|
43
口口口口 |①---|
口②口① |----|
口口口口 |②---|
口口口口 |----|
44
口口口口 |①---|
口口口口 |②---|
口①②③ |③---|
口口口口 |----|
45
口口口口 |①---|
口②口① |----|
口口口口 |②---|
口口口口 |----|
46
口①①口 |①---|
口②②口 |----|
口口口口 |②---|
口口口口 |----|
47
口口口口 |①---|
口口口口 |----|
口①①口 |②---|
③②②③ |③---|
48
口口口口 |①---|
②口口② |----|
①口口① |②---|
口口口口 |----|
49
①②②① |①---|
口③③口 |②---|
口④④口 |③---|
口口口口 |④---|
50
口口口口 |①---|
口口口口 |②---|
④口口口 |③---|
③②①口 |④---|
51
口口口口 |①---|
口口口④ |②---|
口①②③ |③---|
口口口口 |④---|
52
④口口口 |①---|
③②①口 |②---|
口口口口 |③---|
口口口口 |④---|
53
口①口口 |①---|
口②③口 |②---|
口口④口 |③---|
口口口口 |④---|
54
口口口口 |①---|
口口口口 |②---|
④口口口 |③---|
③②①口 |④---|
55
口口口口 |①---|
口口口④ |②---|
口①②③ |③---|
口口口口 |④---|
56
④口口口 |①---|
③②①口 |②---|
口口口口 |③---|
口口口口 |④---|
57
口①口口 |①---|
口②③口 |②---|
口口④口 |③---|
口口口口 |④---|
58
口口口口 |①---|
口口口口 |②---|
④口口口 |③---|
③②①口 |④---|
59
口口口口 |①---|
口口口④ |②---|
口①②③ |③---|
口口口口 |④---|
60
④口口口 |①---|
③②①口 |②---|
口口口口 |③---|
口口口口 |④---|
61
口①口口 |①---|
口②③口 |②---|
口口④口 |③---|
口口口口 |④---|
62
口口口口 |①---|
口口口口 |②---|
口口口口 |③---|
③②①口 |----|
63
口口口口 |①---|
口口口口 |②---|
口①②③ |③---|
口口口口 |----|
64
口②②口 |①---|
口①①口 |----|
口口口口 |②---|
口口口口 |----|
65
①②口口 |①---|
口口口口 |----|
口口口口 |②---|
口口口口 |----|
66
口口①② |①---|
口口口口 |----|
口口口口 |②---|
口口口口 |----|
67
口口口口 |①---|
④③②① |②---|
口口口口 |③---|
口口口口 |④---|
68
口口口口 |①---|
口口口口 |②---|
①②③④ |③---|
口口口口 |④---|
69
口口口口 |①---|
口②口① |----|
口口口口 |②---|
口口口口 |----|
70
口口口口 |①---|
口口口口 |②---|
口①②③ |③---|
口口口口 |----|
71
口口口口 |①---|
口口口口 |----|
口口口口 |②---|
口②口① |----|
72
口口口口 |①---|
口口口口 |②---|
口①②③ |③---|
口口口口 |----|
73
口口口口 |①---|
口②口① |----|
口口口口 |②---|
口口口口 |----|
74
口口口口 |①---|
口口口口 |②---|
口①②③ |③---|
口口口口 |----|
75
口口口口 |①---|
口②口① |----|
口口口口 |②---|
口口口口 |----|
76
口①①口 |①---|
口②②口 |----|
口口口口 |②---|
口口口口 |----|
77
口口口口 |①---|
口口口口 |----|
口①①口 |②---|
③②②③ |③---|
78
口口口口 |①---|
②口口② |----|
①口口① |②---|
口口口口 |----|
79
①②②① |①---|
口③③口 |②---|
口④④口 |③---|
口口口口 |④---|
80
口口口口 |①---|
口口口口 |----|
口口口口 |----|
口①①口 |----|


不确定度: 0

最終更新:2013年03月23日 15:35