銀河
フジファブリック

BASIC

Level: 3
BPM: 147
Notes: 217

全程BPM在147附近飄忽不定
1
口口口口 |----|
口口口口 |----|
口口口口 |----|
口口口口 |----|
2
口口口口 |①---|
口口口口 |②---|
口口口口 |③---|
①②③④ |④---|
3
口口口口 |①---|
口口口口 |②---|
①②③④ |③---|
口口口口 |④---|
4
口口口口 |①---|
①②③④ |②---|
口口口口 |③---|
口口口口 |④---|
5
口口口① |①---|
口口口口 |----|
口口口口 |----|
口口口口 |----|
6
①②③④ |①---|
口口口口 |②---|
口口口口 |③---|
口口口口 |④---|
7
口口口口 |①---|
①②③④ |②---|
口口口口 |③---|
口口口口 |④---|
8
口口口口 |①---|
口口口口 |②---|
①②③④ |③---|
口口口口 |④---|
9
口口口口 |①---|
口口口口 |----|
②口口② |②---|
口①①口 |----|
10
①①口口 |①---|
口口口口 |----|
口口口口 |----|
口口口口 |----|
11
口口口口 |①---|
口口④口 |②---|
口①③口 |③---|
口口②口 |④---|
12
口口①口 |①---|
口②口口 |----|
口口③口 |--②-|
口④口口 |③-④-|
13
口口口口 |----|
口口口口 |----|
口口口口 |----|
口口口口 |----|
14
口口①① |①---|
口口口口 |----|
口口口口 |----|
口口口口 |----|
15
口口口口 |①---|
口④①口 |②---|
口③口口 |③---|
口②口口 |④---|
16
口①口口 |①---|
口口②口 |----|
口③口口 |--②-|
口口④口 |③-④-|
17
口口口口 |----|
口口口口 |----|
口口口口 |----|
口口口口 |----|
18
①①①① |①---|
口口口口 |----|
口口口口 |----|
口口口口 |----|
19
口口口口 |①---|
①①①① |----|
口口口口 |----|
口口口口 |----|
20
口口口口 |①---|
口口口口 |----|
①①①① |----|
口口口口 |----|
21
口口口口 |①---|
口口口口 |----|
口口口口 |----|
①①①① |----|
22
①①①① |①---|
口口口口 |----|
口口口口 |----|
口口口口 |----|
23
口口口口 |①---|
①①①① |----|
口口口口 |----|
口口口口 |----|
24
口口口口 |①---|
口口口口 |----|
①①①① |----|
口口口口 |----|
25
口口口口 |①---|
口口口口 |----|
口口口口 |----|
①①①① |----|
26
口②④口 |①---|
口①③口 |②---|
口口口口 |③---|
口口口口 |④---|
27
口口口口 |①---|
口②④口 |②---|
口①③口 |③---|
口口口口 |④---|
28
口口口口 |①---|
口口口口 |②---|
口②④口 |③---|
口①③口 |④---|
29
口口口口 |①---|
口①①口 |----|
口口口口 |----|
口口口口 |----|
30
口口口口 |①---|
①②口口 |②---|
③④口口 |③---|
口口口口 |④---|
31
口口口口 |①---|
口①②口 |②---|
口③④口 |③---|
口口口口 |④---|
32
口口口口 |①---|
口口①② |②---|
口口③④ |③---|
口口口口 |④---|
33
口④④口 |①---|
口口③口 |②---|
口②口口 |③---|
口口①口 |④---|
34
口口口口 |①---|
口①口口 |----|
口③②口 |②---|
口口口口 |③---|
35
口②③口 |①---|
口口①口 |----|
口口口口 |②---|
口口口口 |③---|
36
口口口口 |①---|
①①②② |----|
口口口口 |②---|
口口口口 |----|
37
口口口口 |----|
口口口口 |----|
口口口口 |----|
口口口口 |----|
38
口口口口 |①---|
口口①口 |----|
口②③口 |②---|
口口口口 |③---|
39
口③②口 |①---|
口①口口 |----|
口口口口 |②---|
口口口口 |③---|
40
口口口口 |①---|
②②①① |----|
口口口口 |②---|
口口口口 |----|
41
口①②口 |①---|
口口口口 |②---|
口③④口 |③---|
口口口口 |④---|
42
①②③④ |①---|
口口口口 |②---|
口口口口 |③---|
口口口口 |④---|
43
口口口口 |①---|
①②③④ |②---|
口口口口 |③---|
口口口口 |④---|
44
口口口口 |①---|
口口口口 |②---|
①②③④ |③---|
口口口口 |④---|
45
口口口口 |①---|
口口口口 |----|
②口口② |②---|
口①①口 |----|
46
口口口口 |①---|
口①①口 |②---|
④②②④ |③---|
口③③口 |④---|
47
口①口口 |①---|
口②③口 |②---|
口口④口 |③---|
口口口口 |④---|
48
口①①口 |①---|
口口口口 |----|
口②②口 |②---|
口口口口 |----|
49
口口①口 |①---|
口②口口 |②---|
口口③口 |③---|
口口口口 |----|
50
口④④口 |①---|
口③③口 |②---|
口②②口 |③---|
口①①口 |④---|
51
口口口口 |①---|
口④口口 |②---|
口③②口 |③---|
口口①口 |④---|
52
口①口口 |①---|
口口口口 |----|
口口口口 |----|
口口口口 |----|
53
口口口口 |----|
口口口口 |----|
口口口口 |----|
口口口口 |----|
54
口口口口 |①---|
口①①口 |②---|
④②②④ |③---|
口③③口 |④---|
55
口①口口 |①---|
口②③口 |②---|
口口④口 |③---|
口口口口 |④---|
56
口①①口 |①---|
口口口口 |----|
口②②口 |②---|
口口口口 |----|
57
口口①口 |①---|
口②口口 |②---|
口口③口 |③---|
口口口口 |----|
58
口④④口 |①---|
口③③口 |②---|
口②②口 |③---|
口①①口 |④---|
59
口口口口 |①---|
口④口口 |②---|
口③②口 |③---|
口口①口 |④---|
60
口①①口 |①---|
口口口口 |----|
口口口口 |----|
口口口口 |----|


不确定度: 0

最終更新:2013年03月23日 13:52