TWINKLE♥HEART
jun

BASIC

Level: 3
BPM: 185
Notes: 254

1
口口口口 |----|
口口口口 |----|
口口口口 |----|
口口口口 |----|
2
①口口① |①---|
口口口口 |----|
口口②口 |----|
口口口口 |--②-|
3
口口口口 |----|
口口口③ |①---|
口①口口 |②---|
口口②口 |③---|
4
①口口① |①---|
口口口口 |----|
②口口口 |--②-|
口口口口 |----|
5
口口口口 |--①-|
口口口③ |----|
口口口口 |②---|
②口口① |③---|
6
①口口① |①---|
口口口口 |----|
口②口口 |----|
口口口口 |--②-|
7
口口口口 |----|
③口口口 |①---|
口口①口 |②---|
口②口口 |③---|
8
①口口① |①---|
口口口口 |----|
口口口② |--②-|
口口口口 |----|
9
口口口口 |--①-|
③口口口 |----|
口口口口 |②---|
①口口② |③---|
10
口口①口 |①---|
口口口口 |----|
口口②口 |②---|
口口口口 |----|
11
①口口① |①---|
口口口口 |----|
口口口口 |----|
口口口口 |----|
12
口①②口 |①---|
口口口口 |----|
口口口口 |②---|
口口口口 |----|
13
口口口口 |①---|
口口口口 |②---|
①②③④ |③---|
口口口口 |④---|
14
口①口口 |①---|
口口口口 |----|
口②口口 |②---|
口口口口 |----|
15
①口口① |①---|
口口口口 |----|
口口口口 |----|
口口口口 |----|
16
口口口口 |①---|
②①①② |----|
口口口口 |②---|
口口口口 |----|
17
口口口口 |①---|
口口口口 |②---|
①口口② |③---|
口③③口 |----|
18
口口①口 |①---|
口口口口 |----|
口口②口 |②---|
口口口口 |----|
19
①口口① |①---|
口口口口 |----|
口口口口 |----|
口口口口 |----|
20
口①②口 |①---|
口口口口 |----|
口口口口 |②---|
口口口口 |----|
21
口口口口 |①---|
口口口口 |②---|
①②③④ |③---|
口口口口 |④---|
22
口①口口 |①---|
口口口口 |----|
口②口口 |②---|
口口口口 |----|
23
①口口① |①---|
口口口口 |----|
口口口口 |----|
口口口口 |----|
24
口口口口 |①---|
②①①② |----|
口口口口 |②---|
口口口口 |----|
25
②口口④ |①---|
口口口口 |②---|
①口口③ |③---|
口口口口 |④---|
26
口②口口 |①---|
口①①口 |----|
口口口口 |----|
口口口口 |②---|
27
口口口① |①---|
口口②口 |②---|
口口口③ |③---|
口口④口 |④---|
28
口口口口 |①---|
口口口口 |----|
口口口口 |----|
口口②① |②---|
29
口④口口 |①---|
③口口口 |②---|
口②口口 |③---|
①口口口 |④---|
30
①口口② |①---|
口口口口 |----|
口口口口 |----|
口口口口 |②---|
31
①口口口 |①---|
口③②口 |②---|
④口口④ |③---|
口口口口 |④---|
32
口口口口 |①---|
①口口① |----|
口②②口 |②---|
口口口口 |----|
33
口口口口 |①---|
口①①口 |----|
口口口口 |----|
口口口口 |----|
34
①口①口 |①---|
口口③口 |----|
口②口口 |②---|
口口口口 |③---|
35
口①口① |①---|
口③口口 |----|
口口②口 |②---|
口口口口 |③---|
36
口①①口 |①---|
②口口② |----|
口口口口 |②---|
口口口口 |----|
37
口口口口 |①---|
口口口口 |②---|
①②③④ |③---|
口口口口 |④---|
38
口口②口 |①---|
①口口① |----|
口口口口 |②---|
口口口口 |----|
39
口②口口 |①---|
①口口① |----|
口口口口 |②---|
口口口口 |----|
40
①口口① |①---|
口②②口 |----|
口口口口 |②---|
口口口口 |----|
41
口口口口 |①---|
口口口口 |②---|
④③②① |③---|
口口口口 |④---|
42
①口①口 |①---|
口口③口 |----|
口②口口 |②---|
口口口口 |③---|
43
口①口① |①---|
口③口口 |----|
口口②口 |②---|
口口口口 |③---|
44
口口口口 |①---|
①口口① |----|
口②②口 |②---|
口口口口 |----|
45
口口口① |①---|
②口口口 |②---|
口③③口 |③---|
口口口口 |----|
46
口①①口 |①---|
口口口② |----|
口口口口 |②---|
口口口口 |----|
47
口①①口 |①---|
②口口口 |----|
口口口口 |②---|
口口口口 |----|
48
口口口口 |①---|
口②②口 |----|
口②②口 |②---|
①口口① |----|
49
口口口口 |----|
口口口口 |----|
口口口口 |----|
口口口口 |----|
50
①口口口 |①---|
口口②口 |----|
口口口口 |②---|
口口口口 |----|
51
口口口口 |①---|
口口口口 |----|
①口口口 |②---|
口②②口 |----|
52
口口口① |①---|
口②口口 |----|
口口口口 |②---|
口口口口 |----|
53
口口口口 |①---|
口口口口 |----|
口口口① |②---|
口②②口 |----|
54
口口口口 |①---|
口口口口 |----|
口①①口 |----|
口口口口 |----|
55
口口口口 |①---|
口①①口 |----|
口口口口 |----|
口口口口 |----|
56
口口口口 |①---|
口口口口 |----|
口①①口 |----|
口口口口 |----|
57
口口口口 |①---|
口①①口 |----|
口口口口 |----|
口口口口 |----|
58
①口口① |①---|
口②口口 |②---|
口口③口 |③---|
口口口④ |④---|
59
口口口口 |①---|
口口口口 |----|
口口口口 |----|
口①①口 |----|
60
①口口① |①---|
口口②口 |②---|
口③口口 |③---|
④口口口 |④---|
61
口口口口 |①---|
口口口口 |----|
口口口口 |----|
口①①口 |----|
62
口口口口 |①---|
口口口口 |----|
①口口① |----|
口口口口 |----|
63
口口口口 |①---|
口①①口 |----|
口口口口 |----|
口口口口 |----|
64
口口口口 |①---|
口口口口 |----|
口①①口 |----|
口口口口 |----|
65
口口口口 |①---|
口①①口 |----|
口口口口 |----|
口口口口 |----|
66
口口口口 |①---|
②①①② |----|
②①①② |----|
口口口口 |--②-|
67
口口口口 |----|
口口口口 |----|
口口口口 |----|
口口口口 |----|
68
口口口口 |①---|
口①②口 |----|
口②①口 |----|
口口口口 |--②-|
69
口口口口 |----|
口口口口 |----|
口口口口 |----|
口口口口 |----|
70
口口口口 |①---|
口口口口 |②---|
④③②① |③---|
口口口口 |④---|
71
口口口口 |①---|
①②③④ |②---|
口口口口 |③---|
口口口口 |④---|
72
口口口口 |①---|
口口口口 |----|
①口口① |----|
口口口口 |----|
73
口口口口 |①---|
口①①口 |----|
口②②口 |②---|
口口口口 |----|
74
①口①口 |①---|
口口③口 |----|
口②口口 |②---|
口口口口 |③---|
75
口①口① |①---|
口③口口 |----|
口口②口 |②---|
口口口口 |③---|
76
口口口口 |①---|
①口口① |----|
口②②口 |②---|
口口口口 |----|
77
口口口① |①---|
②口口口 |②---|
口③③口 |③---|
口口口口 |----|
78
口①①口 |①---|
口口口② |----|
口口口口 |②---|
口口口口 |----|
79
口①①口 |①---|
②口口口 |----|
口口口口 |②---|
口口口口 |----|
80
口口口口 |①---|
口②②口 |----|
口②②口 |②---|
①口口① |----|
81
口口口口 |①---|
①③③① |----|
①②②① |②---|
口口口口 |③---|


不确定度: 0

最終更新:2012年11月07日 23:46