サマータイム
DigiCut

BASIC

Level: 2
BPM: 123
Notes: 210

1
口口口口 |----|
口口口口 |----|
口口口口 |----|
口口口口 |----|
2
①口口② |①---|
口口口口 |----|
口口口口 |②---|
口口口口 |----|
3
口口口口 |①---|
①口口② |----|
口口口口 |②---|
口口口口 |----|
4
口口口口 |①---|
口口口口 |----|
口①口② |②---|
口口口口 |----|
5
口口口口 |①---|
口口口口 |----|
口口口口 |②---|
口①口② |----|
6
①①口② |①---|
口口口口 |----|
口口口口 |②---|
口口口口 |----|
7
口口口口 |①---|
口①口② |----|
口口口口 |②---|
口口口口 |----|
8
口口口口 |①---|
口口口口 |----|
②口①① |②---|
口口口口 |----|
9
口口口口 |①---|
口口口口 |----|
口口口口 |②---|
②口①口 |----|
10
①口②口 |①---|
①口口口 |----|
口口口口 |②---|
口口口口 |----|
11
口口口口 |①---|
口①口② |----|
口①口口 |②---|
口口口口 |----|
12
口口口口 |①---|
②口①口 |----|
口口①口 |②---|
口口口口 |----|
13
口口口口 |①---|
口口口口 |----|
②口①口 |②---|
口口①口 |----|
14
口①①口 |①---|
口口口口 |----|
口②②口 |----|
口口口口 |②---|
15
口口口口 |①---|
①②③④ |②---|
口口口口 |③---|
口口口口 |④---|
16
口口口口 |①---|
②口口③ |----|
口口口口 |②---|
口①①口 |③---|
17
②口口③ |①---|
口口口口 |----|
口①①口 |②---|
口口口口 |③---|
18
口口口口 |①---|
口口口口 |②---|
口口口口 |③---|
①②③④ |④---|
19
口口口口 |①---|
①②③④ |②---|
口口口口 |③---|
口口口口 |④---|
20
口口口口 |①---|
口口口口 |②---|
④③②① |③---|
口口口口 |④---|
21
④③②① |①---|
口口口口 |②---|
口口口口 |③---|
口口口口 |④---|
22
口口口① |①---|
口⑤口口 |②---|
口④口② |③-④-|
口③口口 |⑤---|
23
①口口口 |①---|
口口⑤口 |②---|
②口④口 |③-④-|
口口③口 |⑤---|
24
口口口① |①---|
口⑤口口 |②---|
口④口② |③-④-|
口③口口 |⑤---|
25
①口口口 |①---|
口口⑤口 |②---|
②口④口 |③-④-|
口口③口 |⑤---|
26
①①③③ |①---|
口口口口 |②---|
②②④④ |③---|
口口口口 |④---|
27
口口口口 |①---|
①①③③ |②---|
口口口口 |③---|
②②④④ |④---|
28
①口口口 |①---|
口口⑤口 |②---|
②口④口 |③-④-|
口口③口 |⑤---|
29
口口口① |①---|
口⑤口口 |②---|
口④口② |③-④-|
口③口口 |⑤---|
30
口口口口 |①---|
口口口口 |----|
口口②② |②---|
口口①① |----|
31
口③②① |①---|
口口口口 |②---|
口口口口 |③---|
口口口口 |----|
32
口口口口 |①---|
口口口口 |----|
②②口口 |②---|
①①口口 |----|
33
②②口口 |①---|
①①口口 |----|
口口口口 |②---|
口口口口 |----|
34
口口口口 |①---|
口口口口 |----|
口口②① |②---|
口口②① |----|
35
口③②① |①---|
口口口口 |②---|
口口口口 |③---|
口口口口 |----|
36
口口口口 |①---|
口口口口 |----|
②②口口 |②---|
①①口口 |----|
37
①口口① |--①-|
②口口② |-②--|
③口口③ |③---|
口口口口 |----|
38
①口口② |①---|
口口口口 |----|
口口口口 |②---|
口口口口 |----|
39
口口口口 |①---|
口①①口 |②---|
口②②口 |③---|
口③③口 |----|
40
口口口口 |①---|
口口口口 |----|
口口口口 |②---|
②口口① |----|
41
④③③④ |①---|
口②②口 |②---|
口①①口 |③---|
口口口口 |④---|
42
口②②口 |①---|
口口口口 |----|
口①①口 |②---|
口口口口 |----|
43
口④口口 |①---|
③口口③ |②---|
②口口② |③---|
①口口① |④---|
44
口口①口 |①---|
口口口口 |----|
口②②口 |②---|
口口口口 |----|
45
②口口② |①---|
口①①口 |--②-|
口口口口 |----|
口口口口 |----|
46
①口口② |①---|
口口口口 |----|
口口口口 |②---|
口口口口 |----|
47
口口口口 |①---|
口①①口 |②---|
口②②口 |③---|
口③③口 |----|
48
口口口口 |①---|
口口口口 |----|
口口口口 |②---|
②口口① |----|
49
④③③④ |①---|
口②②口 |②---|
口①①口 |③---|
口口口口 |④---|
50
口②②口 |①---|
口口口口 |----|
口①①口 |②---|
口口口口 |----|
51
口④口口 |①---|
③口口③ |②---|
②口口② |③---|
①口口① |④---|
52
口口①口 |①---|
口口口口 |----|
口②②口 |②---|
口口口口 |----|
53
口①①口 |①---|
口口口口 |----|
口口口口 |----|
口口口口 |----|


不确定度: 0

最終更新:2013年03月23日 13:47