An imitation's superstar
VOLA & THE ORIENTAL MACHINE

BASIC

Level: 3
BPM: 180
Notes: 198

1
口口口口 |----|
口口口口 |----|
口口口口 |----|
口口口口 |----|
2
①②口口 |----|
口口口口 |①---|
口口口口 |----|
口口口口 |②---|
3
口口①② |----|
口口口口 |①---|
口口口口 |----|
口口口口 |②---|
4
口口口口 |----|
口口②① |①---|
口口口口 |----|
口口口口 |②---|
5
口口口口 |----|
②①口口 |①---|
口口口口 |----|
口口口口 |②---|
6
口口口口 |----|
口口口口 |①---|
①②口口 |----|
口口口口 |②---|
7
口口口口 |----|
口口口口 |①---|
口口①② |----|
口口口口 |②---|
8
口口口口 |----|
口口口口 |①---|
口口口口 |----|
口②①口 |②---|
9
口口口口 |①---|
口①①口 |----|
口②②口 |②---|
口口口口 |----|
10
①口口口 |①---|
口口口口 |----|
口口口口 |----|
口口口口 |----|
11
口口口口 |----|
口口口口 |①---|
口①①口 |----|
口②②口 |②---|
12
口口口① |①---|
口口口口 |----|
口口口口 |----|
口口口口 |----|
13
口口口口 |----|
口口口口 |①---|
口①①口 |----|
口②②口 |②---|
14
①口口口 |①---|
口口口口 |----|
口口口口 |----|
口口口口 |----|
15
口口口口 |----|
口①①口 |①---|
口②②口 |----|
口口口口 |②---|
16
口口口① |①---|
口口口口 |----|
口口口口 |----|
口口口口 |----|
17
口口口口 |①---|
口口口口 |②---|
口①②口 |③---|
口③④口 |④---|
18
①②口口 |①---|
口口口口 |----|
口口口口 |②---|
口口口口 |----|
19
口口①口 |①---|
口口口口 |②---|
口②②口 |----|
口③③口 |③---|
20
口口②① |①---|
口口口口 |----|
口口口口 |②---|
口口口口 |----|
21
口①口口 |①---|
口口口口 |②---|
②口口② |----|
③口口③ |③---|
22
①②口口 |①---|
口口口口 |----|
口口口口 |②---|
口口口口 |----|
23
口口①口 |①---|
口口口口 |②---|
口②②口 |----|
口③③口 |③---|
24
口口②① |①---|
口口口口 |----|
口口口口 |②---|
口口口口 |----|
25
口口口口 |①---|
口①②口 |②---|
口③④口 |③---|
口口口口 |④---|
26
口口口口 |①---|
口口口口 |----|
②口口② |②---|
①口口① |----|
27
②口口② |①---|
①口口① |----|
口口口口 |②---|
口口口口 |----|
28
口口口口 |①---|
口口口口 |----|
②口口② |②---|
口①①口 |----|
29
口②②口 |①---|
①口口① |----|
口口口口 |②---|
口口口口 |----|
30
口口口口 |①---|
口②口口 |----|
口口口口 |②---|
口①口口 |----|
31
口口口口 |①---|
口口②口 |----|
口口口口 |②---|
口口①口 |----|
32
口口口口 |①---|
②口口口 |----|
口口口口 |②---|
①口口口 |----|
33
口口口口 |①---|
口口口② |----|
口口口口 |②---|
口口口① |----|
34
口①①口 |①---|
口口口口 |----|
口口口口 |----|
口口口口 |----|
35
口口口口 |----|
口口口口 |①---|
口①①口 |----|
口②②口 |②---|
36
口口口① |①---|
口口口口 |----|
口口口口 |----|
口口口口 |----|
37
口口口口 |----|
口口口口 |①---|
口①①口 |----|
口②②口 |②---|
38
①口口口 |①---|
口口口口 |----|
口口口口 |----|
口口口口 |----|
39
口口口口 |----|
口口口口 |①---|
口①①口 |----|
口②②口 |②---|
40
口口口① |①---|
口口口口 |----|
口口口口 |----|
口口口口 |----|
41
口口口口 |①---|
口口口口 |②---|
口③④口 |③---|
口①②口 |④---|
42
①口①口 |①---|
②口②口 |----|
口口口口 |②---|
口口口口 |----|
43
口口口口 |----|
口口口口 |----|
口口口口 |----|
口口口口 |----|
44
口口口口 |①---|
口口口口 |----|
口口②口 |②---|
口口口① |----|
45
口口口口 |①---|
口口口口 |----|
口口口口 |----|
口①口口 |----|
46
口②口① |①---|
口口口口 |----|
口口口口 |②---|
口口口口 |----|
47
口口口口 |①---|
口②口① |----|
口口口口 |②---|
口口口口 |----|
48
口口口口 |①---|
口口口口 |----|
口②口口 |②---|
①口口口 |----|
49
口口口口 |①---|
口口口口 |----|
口口口口 |----|
口口①口 |----|
50
口口口口 |①---|
口口口口 |----|
②口口② |②---|
①口口① |----|
51
②口口② |①---|
①口口① |----|
口口口口 |②---|
口口口口 |----|
52
口口口口 |①---|
口口口口 |----|
②口口② |②---|
口①①口 |----|
53
口②②口 |①---|
①口口① |----|
口口口口 |②---|
口口口口 |----|
54
口口口口 |①---|
口②口口 |----|
口口口口 |②---|
口①口口 |----|
55
口口口口 |①---|
口口②口 |----|
口口口口 |②---|
口口①口 |----|
56
口口口口 |①---|
口②口口 |----|
口口口口 |②---|
口①口口 |----|
57
②②②② |①---|
口口口口 |----|
①口口① |②---|
口口口口 |----|
58
口口口口 |①---|
口口口口 |----|
①口②口 |②---|
口口口口 |----|
59
口口口口 |①---|
口①口② |----|
口口口口 |②---|
口口口口 |----|
60
①①口口 |①---|
②②口口 |----|
口口口口 |②---|
口口口口 |----|
61
口口①① |①---|
口口②② |----|
口口口口 |②---|
口口口口 |----|
62
口口口口 |①---|
口口口口 |----|
①口②口 |②---|
口口口口 |----|
63
口口口口 |①---|
口①口② |----|
口口口口 |②---|
口口口口 |----|
64
①口②口 |①---|
口口口口 |----|
口口口口 |②---|
口口口口 |----|
65
口口口口 |①---|
口①①口 |----|
口口口口 |②---|
口②②口 |----|
66
口口口口 |①---|
口口口口 |----|
①口②口 |②---|
口口口口 |----|
67
口口口口 |①---|
口①口② |----|
口口口口 |②---|
口口口口 |----|
68
①①口口 |①---|
②②口口 |----|
口口口口 |②---|
口口口口 |----|
69
口③③口 |①---|
口②②口 |----|
口口口口 |②---|
口①①口 |③---|
70
口口口口 |①---|
口口口口 |----|
①口②口 |②---|
口口口口 |----|
71
口口口口 |①---|
口①口② |----|
口口口口 |②---|
口口口口 |----|
72
①口口① |①---|
口②②口 |----|
口②②口 |--②-|
口口口口 |----|


不确定度: 0

最終更新:2013年03月23日 13:44