An imitation's superstar
VOLA & THE ORIENTAL MACHINE

ADVANCED

Level: 7
BPM: 180
Notes: 473

1
口口口口 |----|
口口口口 |----|
口口口口 |----|
口口口口 |----|
2
②口口② |①---|
④口口④ |②---|
口口口口 |③---|
口③①口 |④---|
3
②口口② |①---|
④口口④ |②---|
口口口口 |③---|
口③①口 |④---|
4
②口口② |①---|
④口口④ |②---|
口口口口 |③---|
口③①口 |④---|
5
②口口② |①---|
④口口④ |②---|
口口口口 |③---|
口③①口 |④---|
6
②口口② |①---|
④口口④ |②---|
口③①口 |③---|
口③①口 |④---|
7
②口口② |①---|
④口口④ |②---|
口③①口 |③---|
口③①口 |④---|
8
②口口② |①---|
④口口④ |②---|
口③①口 |③---|
口③①口 |④---|
9
口①②口 |①-②-|
口③④口 |③-④-|
口⑤⑥口 |⑤-⑥-|
口⑦⑧口 |⑦-⑧-|
10
口①口口 |--①-|
③口口② |②-③-|
⑤口口④ |④-⑤-|
⑦口口⑥ |⑥-⑦-|
11
口①口① |----|
②口②口 |①---|
口口口口 |----|
口口口口 |②---|
12
口口①口 |--①-|
口②口③ |②-③-|
口④口⑤ |④-⑤-|
口⑥口⑦ |⑥-⑦-|
13
①口①口 |----|
口②口② |①---|
口口口口 |----|
口口口口 |②---|
14
口①口口 |--①-|
③口②口 |②-③-|
口⑤口④ |④-⑤-|
⑦口⑥口 |⑥-⑦-|
15
口①口① |----|
②口②口 |①---|
口口口口 |----|
口口口口 |②---|
16
口口①口 |--①-|
口③口② |②-③-|
⑤口④口 |④-⑤-|
口⑦口⑥ |⑥-⑦-|
17
①②口口 |①-②-|
③④口口 |③-④-|
口口⑤⑥ |⑤-⑥-|
口口⑦⑧ |⑦-⑧-|
18
①口口② |----|
③口口④ |①-②-|
口⑤⑤口 |③-④-|
口口口口 |--⑤-|
19
口口口口 |----|
口口口口 |①---|
口口口口 |----|
①②①② |②---|
20
⑦④③⑦ |①-②-|
口②①口 |③-④-|
口⑥⑤口 |⑤-⑥-|
口口口口 |--⑦-|
21
口口口口 |----|
口口口口 |①---|
口口口口 |----|
②①②① |②---|
22
口⑥⑥口 |--①-|
④①②⑤ |②-③-|
口③口口 |④-⑤-|
口口口口 |--⑥-|
23
口口口口 |----|
口口口口 |①---|
口口口口 |----|
①②①② |②---|
24
①②⑤④ |①-②-|
口口口口 |--③-|
口⑥③口 |④-⑤-|
口口口口 |--⑥-|
25
①②口口 |①-②-|
③④口口 |③-④-|
口口⑤⑥ |⑤-⑥-|
口口⑦⑧ |⑦-⑧-|
26
②口口④ |①-②-|
口口口口 |----|
①口口③ |③-④-|
口口口口 |----|
27
口②②口 |①-②-|
口口口口 |--③-|
③①①③ |--④-|
④口口④ |----|
28
⑥②④⑧ |①-②-|
口口口口 |③-④-|
⑤①③⑦ |⑤-⑥-|
口口口口 |⑦-⑧-|
29
口④④口 |①---|
口①①口 |②-③-|
口③③口 |--④-|
口②②口 |----|
30
口③④口 |①---|
口⑤⑥口 |②---|
口口口口 |③-④-|
①口口② |⑤-⑥-|
31
④口口④ |①-②-|
①口口② |③---|
口③③口 |④---|
⑤口口⑤ |⑤---|
32
⑤①②⑥ |①-②-|
口③④口 |③-④-|
口口口口 |⑤-⑥-|
口⑦⑦口 |--⑦-|
33
口②口口 |①---|
口口③③ |②-③-|
①②口① |--④-|
④口口④ |----|
34
①⑥①⑦ |①-②-|
①①口⑤ |③-④-|
①④①③ |⑤-⑥-|
⑧②口口 |⑦-⑧-|
35
①口①口 |----|
口②口② |①---|
口口口口 |----|
口口口口 |②---|
36
口①口口 |--①-|
③口②口 |②-③-|
⑤口④口 |④-⑤-|
⑦口⑥口 |⑥-⑦-|
37
口①口① |----|
②口②口 |①---|
口口口口 |----|
口口口口 |②---|
38
口口①口 |--①-|
口③口② |②-③-|
⑤口④口 |④-⑤-|
口⑦口⑥ |⑥-⑦-|
39
①口①口 |----|
口②口② |①---|
口口口口 |----|
口口口口 |②---|
40
口①口口 |--①-|
②口③口 |②-③-|
口④口⑤ |④-⑤-|
⑥口⑦口 |⑥-⑦-|
41
口①②口 |①-②-|
口③④口 |③-④-|
口⑤⑥口 |⑤-⑥-|
口⑦⑧口 |⑦-⑧-|
42
①口口② |①---|
口④④口 |②---|
口③③口 |③-④-|
口口口口 |----|
43
口口口口 |--①-|
口口口口 |--②-|
口口口口 |--③-|
①②③④ |--④-|
44
①③⑦⑤ |①-②-|
②④⑧⑥ |③-④-|
口口口口 |⑤-⑥-|
口口口口 |⑦-⑧-|
45
口口口口 |--①-|
口口口口 |--②-|
口口口口 |--③-|
④③②① |--④-|
46
①②⑤④ |--①-|
口③⑥口 |②-③-|
口口口口 |④-⑤-|
口口口口 |⑥---|
47
口口口口 |①---|
口口口口 |----|
①口口① |②---|
②口口② |----|
48
①②口口 |--①-|
口⑤⑤口 |②---|
口口④③ |③-④-|
口口口口 |--⑤-|
49
口口口口 |--①-|
口口口口 |----|
口口口口 |----|
口①①口 |----|
50
②口口④ |①-②-|
口口口口 |----|
①口口③ |③-④-|
口口口口 |----|
51
口口口口 |①-②-|
口①②口 |③-④-|
口③④口 |⑤-⑥-|
口⑤⑥口 |----|
52
②口口④ |①-②-|
口口口口 |----|
①口口③ |③-④-|
口口口口 |----|
53
口口②口 |①-②-|
④①④③ |③-④-|
口口口口 |--⑤-|
⑤口⑤口 |----|
54
口④⑤口 |--①-|
口⑥⑦口 |②-③-|
②口口③ |④-⑤-|
口口口① |⑥-⑦-|
55
④口口④ |①-②-|
①口口② |③---|
口③③口 |④---|
⑤口口⑤ |⑤---|
56
口⑦⑥口 |--①-|
①③口口 |②-③-|
口口②口 |④-⑤-|
口⑤④口 |⑥-⑦-|
57
④④④④ |①---|
①口口② |②---|
①口口② |③---|
③③③③ |④---|
58
口口口口 |----|
①④②口 |①---|
口③口口 |②---|
口口口口 |③-④-|
59
②口口① |--①-|
④口口③ |②-③-|
⑥口口⑤ |④-⑤-|
口口口⑦ |⑥-⑦-|
60
④①①④ |①---|
口②②口 |②---|
口③③口 |③---|
口口口口 |④---|
61
口④④口 |①-②-|
③口口口 |③---|
口⑥⑥② |④---|
①⑤⑤口 |⑤-⑥-|
62
①⑥⑥① |--①-|
⑤口口口 |②-③-|
口口口④ |④-⑤-|
③口口② |--⑥-|
63
②⑦⑦① |--①-|
④口口③ |②-③-|
⑥口口⑤ |④-⑤-|
口口口口 |⑥-⑦-|
64
⑦口口⑦ |--①-|
口口口口 |②-③-|
口②①口 |④-⑤-|
⑥④③⑤ |⑥-⑦-|
65
口④④口 |--①-|
口③口口 |②-③-|
⑥①②⑥ |④---|
⑤口口⑤ |⑤-⑥-|
66
⑦口口⑦ |--①-|
①②③口 |②-③-|
口④⑤⑥ |④-⑤-|
口口口口 |⑥-⑦-|
67
口口口口 |--①-|
口①②口 |②-③-|
口③④口 |④-⑤-|
⑤口口⑤ |----|
68
④①①④ |①---|
口②②口 |②---|
口③③口 |③---|
口口口口 |④---|
69
⑥①③⑥ |①-②-|
⑥②④⑥ |③-④-|
⑤口口⑤ |⑤---|
口⑤⑤口 |⑥---|
70
⑥口口⑥ |--①-|
口⑤⑤口 |②-③-|
③口口④ |④-⑤-|
①口口② |--⑥-|
71
口口口口 |----|
口口口口 |①-②-|
口①②口 |③-④-|
口③④口 |----|
72
①①口口 |①----②|
口口④④ |----③-|
口口②② |--④-|
③③口口 |----|


不确定度: 0

最終更新:2013年03月23日 13:44